<?xml version="1.0" standalone="no"?>
<!DOCTYPE svg PUBLIC "-//W3C//DTD SVG 1.1//EN" "http://www.w3.org/Graphics/SVG/1.1/DTD/svg11.dtd" >
<svg xmlns="http://www.w3.org/2000/svg">
<metadata>Generated by IcoMoon</metadata>
<defs>
<font id="moiuniversitet" horiz-adv-x="1024">
<font-face units-per-em="1024" ascent="960" descent="-64" />
<missing-glyph horiz-adv-x="1024" />
<glyph unicode="&#x20;" horiz-adv-x="512" d="" />
<glyph unicode="&#xe900;" glyph-name="graduate-hat" d="M986.9 648.56l-160.24 88.24c-2.088 1.172-4.584 1.863-7.24 1.863-8.286 0-15.003-6.717-15.003-15.003 0-5.629 3.1-10.534 7.687-13.101l0.076-0.039 160.24-88.24c12.947-7.24 21.556-20.865 21.556-36.5s-8.609-29.26-21.345-36.392l-0.211-0.108-192.86-106.22-190.66 114.16c6.579 7.637 10.634 17.611 10.78 28.529v0.031c0 32.86-38.52 58.62-87.68 58.62s-87.68-25.74-87.68-58.62 38.52-58.62 87.68-58.62c0.422-0.005 0.919-0.008 1.418-0.008 17.944 0 34.971 3.923 50.271 10.957l-0.749-0.309 186.2-111.48-174.58-96.14c-18.039-10.184-39.609-16.185-62.58-16.185s-44.541 6-63.227 16.519l0.647-0.335-397.84 219.1c-12.947 7.24-21.556 20.865-21.556 36.5s8.609 29.26 21.345 36.392l0.211 0.108 397.86 219.1c18.039 10.182 39.609 16.182 62.58 16.182s44.54-5.999 63.227-16.517l-0.647 0.335 179.24-98.72c2.088-1.172 4.584-1.863 7.24-1.863 8.286 0 15.003 6.717 15.003 15.003 0 5.629-3.1 10.534-7.687 13.101l-0.076 0.039-179.26 98.72c-22.198 12.522-48.737 19.9-77 19.9s-54.802-7.378-77.798-20.312l0.798 0.412-397.94-219.1c-22.274-12.449-37.087-35.885-37.087-62.78s14.812-50.331 36.724-62.594l0.362-0.186 397.86-219.12c22.198-12.522 48.737-19.9 77-19.9s54.802 7.378 77.798 20.312l-0.798-0.412 175.22 96.5v-140.38c-26.335-7.126-45.39-30.806-45.39-58.938 0-9.081 1.986-17.698 5.546-25.441l-0.156 0.379c-3.423-7.376-5.42-16.010-5.42-25.111 0-0.003 0-0.006 0-0.010v0.001-50.46c-61.881-18.181-133.012-28.8-206.572-29.139l-0.188-0.001c-131.16 0-241.88 35.78-311.68 65.82-33.191 14.456-55.979 46.964-56 84.797v200.603c0 8.284-6.716 15-15 15s-15-6.716-15-15v0-200.6c0-0.012 0-0.027 0-0.041 0-50.076 30.111-93.119 73.214-112.012l0.786-0.307c72.38-31.14 187.26-68.26 323.54-68.26 73.719 0.279 144.939 10.482 212.549 29.34l-5.629-1.34v-25.28c0.023-19.674 15.966-35.617 35.638-35.64h50.782c0.024 0 0.052 0 0.080 0 19.691 0 35.657 15.952 35.68 35.638v68.002c40.968 20.312 68.636 61.845 68.64 109.84v0 258.58l77.3 42.58c22.274 12.449 37.087 35.885 37.087 62.78s-14.812 50.331-36.724 62.594l-0.362 0.186zM512 557.16c-33.020 0-57.68 15.1-57.68 28.62s24.68 28.62 57.68 28.62 57.68-15.1 57.68-28.62c0-4.3-2.52-8.78-7-12.86l-42.98 25.74c-2.201 1.34-4.863 2.133-7.71 2.133-8.286 0-15.003-6.717-15.003-15.003 0-5.439 2.894-10.202 7.226-12.832l0.067-0.038 24.12-14.44c-4.927-0.835-10.606-1.315-16.396-1.32h-0.004zM780 232c17.132 0 31.020-13.888 31.020-31.020s-13.888-31.020-31.020-31.020c-17.132 0-31.020 13.888-31.020 31.020v0c0.023 17.123 13.897 30.997 31.018 31.020h0.002zM805.38 38.44h-50.82c-3.115 0-5.64 2.525-5.64 5.64v0 104.4c8.864-5.335 19.563-8.49 31-8.49s22.136 3.156 31.275 8.644l-0.275-0.153v-104.48c-0.022-3.077-2.505-5.566-5.577-5.6h-0.003zM879.64 221.92c-0.003-30.824-15.131-58.114-38.367-74.853l-0.273-0.187s1.72 16.36-5.64 28.52c3.567 7.515 5.649 16.329 5.649 25.629 0 28.61-19.709 52.617-46.291 59.183l-0.419 0.088v156.6l85.34 47z" />
<glyph unicode="&#xe901;" glyph-name="book" horiz-adv-x="1105" d="M1083.412 728.737c-10.001 12.804-23.256 22.63-38.532 28.294l-0.603 0.196c0.294-2.967 0.462-6.412 0.462-9.897 0-9.896-1.353-19.476-3.884-28.566l0.178 0.747-198.21-652.318c-3.964-11.953-12.202-21.575-22.86-27.25l-0.256-0.124c-10.591-6.335-23.355-10.097-36.994-10.139h-610.357q-79.284 0-95.1 46.232c-2.029 3.967-3.219 8.653-3.219 13.618 0 5.423 1.419 10.514 3.906 14.922l-0.079-0.152c5.371 6.311 13.322 10.288 22.201 10.288 1.037 0 2.060-0.054 3.069-0.16l-0.126 0.011h574.657q61.44 0 84.86 22.812t47.246 101.386l181.076 598.482c3.435 9.377 5.422 20.204 5.422 31.495 0 20.382-6.474 39.252-17.478 54.666l0.195-0.287c-15.956 22.553-41.936 37.099-71.313 37.099-1.413 0-2.818-0.034-4.214-0.1l0.197 0.007h-502.875c-12.463-1.061-23.922-3.178-34.962-6.296l1.302 0.314 0.71 2.028c-9.401 2.4-20.22 3.835-31.354 3.953l-0.076 0.001c-8.915-0.228-17.131-3.037-23.98-7.703l0.155 0.099c-6.741-4.477-12.521-9.708-17.432-15.681l-0.108-0.135c-4.764-6.15-9.057-13.105-12.58-20.499l-0.296-0.691c-4.157-8.618-7.705-16.526-10.139-23.826s-6.185-15.005-10.139-23.116c-3.494-7.861-7.151-14.516-11.288-20.828l0.339 0.551c-2.636-3.549-6.387-8.111-11.254-13.89s-8.821-10.747-11.862-15.208c-2.558-3.414-4.601-7.393-5.91-11.691l-0.071-0.272c-0.246-1.723-0.386-3.713-0.386-5.736 0-4.131 0.585-8.125 1.678-11.903l-0.075 0.302c1.308-4.479 2.060-9.625 2.060-14.946 0-0.662-0.012-1.322-0.035-1.979l0.003 0.095c-3.541-23.822-9.883-45.291-18.782-65.374l0.634 1.602c-7.907-21.365-17.37-39.793-28.71-56.867l0.626 1.003c-1.825-2.23-6.59-7.198-14.498-14.904-6.272-5.423-11.21-12.216-14.371-19.926l-0.127-0.351c-1.825-2.129-1.825-8.314 0-18.452 1.127-5.459 1.773-11.733 1.773-18.157 0-1.066-0.018-2.129-0.053-3.186l0.004 0.154c-3.579-22.324-9.333-42.302-17.181-61.192l0.655 1.78c-8.588-23.671-17.95-43.732-28.823-62.821l1.043 1.989c-3.679-5.752-7.554-10.754-11.828-15.383l0.067 0.073c-4.78-5.168-8.602-11.305-11.129-18.072l-0.124-0.38c-0.462-2.789-0.726-6.002-0.726-9.277s0.264-6.488 0.772-9.62l-0.046 0.343c0.638-3.048 1.004-6.551 1.004-10.139s-0.365-7.091-1.061-10.473l0.057 0.334c-5.612-23.46-12.566-43.741-21.185-63.118l0.908 2.286c-9.459-23.741-19.428-43.756-30.811-62.83l1.105 1.998c-3.507-5.165-6.939-9.628-10.606-13.881l0.163 0.194c-3.571-4.494-7.146-9.554-10.438-14.81l-0.41-0.702c-2.435-3.995-4.268-8.654-5.229-13.625l-0.043-0.265c-0.022-0.446-0.034-0.968-0.034-1.494 0-4.089 0.756-8.001 2.137-11.604l-0.075 0.222c1.316-3.657 2.077-7.877 2.077-12.275 0-0.675-0.018-1.346-0.053-2.012l0.004 0.093q-0.912-9.632-2.839-24.637c-1.318-10.139-2.028-16.019-2.028-17.844-4.406-11.971-6.955-25.794-6.955-40.213 0-15.741 3.037-30.773 8.558-44.541l-0.285 0.806c13.249-35.768 36.029-65.411 65.269-86.722l0.53-0.368c26.762-21.45 60.953-34.643 98.203-35.28l0.142-0.002h609.736c30.823 0.271 59.070 11.080 81.366 28.993l-0.257-0.199c23.83 17.337 41.621 41.692 50.434 70.004l0.259 0.966 181.076 598.685c3.403 9.294 5.372 20.024 5.372 31.215 0 20.267-6.457 39.026-17.425 54.332l0.191-0.281zM380.299 727.419l13.89 42.278c2.164 6.193 6.126 11.301 11.256 14.839l0.1 0.065c4.549 3.771 10.4 6.116 16.794 6.285l0.036 0.001h401.388c0.374 0.035 0.809 0.054 1.249 0.054 4.945 0 9.307-2.493 11.899-6.291l0.032-0.050c1.511-2.511 2.404-5.541 2.404-8.78 0-2.163-0.398-4.233-1.126-6.14l0.040 0.118-13.89-42.278c-2.058-6.149-5.881-11.249-10.862-14.844l-0.088-0.060c-4.553-3.764-10.402-6.108-16.792-6.285l-0.038-0.001h-401.692c-0.359-0.032-0.776-0.050-1.198-0.050-4.959 0-9.336 2.489-11.95 6.287l-0.032 0.049c-1.532 2.515-2.438 5.556-2.438 8.81 0 2.191 0.411 4.285 1.16 6.211l-0.040-0.117zM325.45 558.206l13.89 42.278c2.050 6.121 5.876 11.192 10.86 14.742l0.090 0.061c4.546 3.777 10.399 6.124 16.795 6.285l0.035 0.001h401.793c0.374 0.035 0.809 0.054 1.249 0.054 4.945 0 9.307-2.493 11.899-6.291l0.032-0.050c1.511-2.511 2.404-5.541 2.404-8.78 0-2.163-0.398-4.233-1.126-6.14l0.040 0.118-13.89-42.278c-2.030-6.107-5.819-11.174-10.762-14.743l-0.086-0.059c-4.549-3.771-10.4-6.116-16.794-6.285l-0.036-0.001h-401.895c-0.374-0.035-0.809-0.054-1.249-0.054-4.945 0-9.307 2.493-11.899 6.291l-0.032 0.050c-1.511 2.511-2.404 5.541-2.404 8.78 0 2.163 0.398 4.233 1.126 6.14l-0.040-0.118z" />
<glyph unicode="&#xe902;" glyph-name="computer" horiz-adv-x="1225" d="M1159.893 959.999h-649.203c-35.838 0-64.891-29.053-64.891-64.891v0-138.803h285.463c51.361-0.165 92.952-41.757 93.117-93.102v-482.48h140.84c0.604-0.064 1.304-0.1 2.013-0.1 11.25 0 20.369 9.12 20.369 20.369 0 3.211-0.743 6.248-2.066 8.95l0.053-0.12-46.268 116.397h236.867c0 0 0.001 0 0.001 0 26.897 0 48.721 21.722 48.886 48.58v520.309c0 0 0 0 0 0.001 0 35.838-29.053 64.891-64.891 64.891-0.102 0-0.205 0-0.307-0.001h0.016zM714.385 715.275h-649.494c-35.838 0-64.891-29.053-64.891-64.891v0-519.711c0-26.839 21.757-48.596 48.596-48.596v0h237.158l-46.268-116.397c-1.27-2.581-2.013-5.619-2.013-8.829 0-11.25 9.12-20.369 20.369-20.369 0.709 0 1.409 0.036 2.1 0.107l-0.087-0.007h259.856c0.604-0.064 1.304-0.1 2.013-0.1 11.25 0 20.369 9.12 20.369 20.369 0 3.211-0.743 6.248-2.066 8.95l0.053-0.12-46.268 116.397h236.576c0.086-0.001 0.189-0.001 0.291-0.001 26.839 0 48.596 21.757 48.596 48.596 0 0 0 0.001 0 0.001v0 519.711c0 35.838-29.053 64.891-64.891 64.891v0zM389.638 123.689c-0.086-0.001-0.188-0.001-0.29-0.001-19.125 0-34.628 15.503-34.628 34.628s15.503 34.628 34.628 34.628c19.125 0 34.628-15.503 34.628-34.628 0-0.102 0-0.204-0.001-0.305v0.016c0-18.964-15.373-34.337-34.337-34.337v0zM686.159 244.159h-593.041v378.289h593.041z" />
<glyph unicode="&#xe903;" glyph-name="drujba" horiz-adv-x="1416" d="M1414.69 833.159v-428.153s-91.66-18.054-110.606-20.444-77.995-21.408-120.846 19.731c-66.043 63.331-300.92 296.889-300.92 296.889s-40.496 39.747-105.504 5.495c-59.656-31.576-148.177-77.674-185.141-95.621-69.86-37.178-127.839 21.8-127.839 66.756 0 34.859 21.764 58.514 52.841 75.926 84.346 51.057 261.958 150.781 336.065 190.1 44.956 23.905 77.353 25.975 139.15-26.046 76.033-63.973 143.717-122.238 143.717-122.238s22.050-18.411 57.266-10.989c86.416 18.268 221.962 48.631 221.962 48.631zM479.889 107.546c11.382 29.221 7.564 61.904-14.272 84.346-19.588 20.052-48.203 25.332-75.498 19.089 7.635 27.045 3.568 55.838-16.27 76.176s-48.203 25.404-75.498 19.089c7.564 27.009 3.39 55.803-16.341 76.069-30.863 31.648-84.239 30.328-119.312-3.14s-57.087-94.122-26.117-129.837 66.828-13.915 94.051-7.707c-7.564-27.009-30.292-52.128-2.319-87.522s66.792-13.915 94.051-7.742c-7.6-26.902-29.293-54.554-2.426-87.343s71.537-15.378 100.866-6.244c-11.31-29.114-35.679-60.655-4.424-95.657s102.935-19.053 138.044 14.272 38.355 86.558 7.564 118.313c-21.408 21.8-52.948 26.867-82.063 17.84zM1120.334 330.364c-253.717 253.717-134.369 134.333-270.914 271.164 0 0-41.031 40.853-95.121 17.126-37.963-16.627-86.844-39.247-123.594-56.623-40.425-21.194-69.504-27.759-83.169-27.652-0.156-0.001-0.34-0.001-0.524-0.001-77.895 0-141.041 63.146-141.041 141.041 0 50.501 26.542 94.802 66.436 119.717l0.594 0.346c56.374 38.998 186.14 108.037 186.14 108.037s-39.533 49.951-126.127 49.951-267.596-118.349-267.596-118.349-51.343-32.932-124.45-3.318l-140.969 49.095v-490.057s40.246-11.631 76.425-26.438c8.636 24.57 22.199 45.521 39.61 62.553l0.029 0.029c60.013 57.087 159.487 57.765 214.077 1.534 15.779-16.232 27.527-36.467 33.573-59.033l0.215-0.944c22.82-7.117 42.31-19.302 57.917-35.295l0.027-0.028c15.791-16.206 27.55-36.417 33.608-58.963l0.216-0.943c46.916-14.772 82.454-52.7 93.581-100.039l0.185-0.933c23.817-7.077 44.182-19.622 60.416-36.225l0.025-0.026c32.789-33.717 44.457-79.422 37.392-123.522 0.031 0.018 0.068 0.029 0.107 0.029s0.076-0.011 0.108-0.029l-0.001 0.001c0.535-0.714 20.337-22.763 32.682-35.216 11.254-11.254 26.802-18.215 43.975-18.215 34.347 0 62.19 27.843 62.19 62.19 0 17.173-6.961 32.721-18.215 43.975v0c-0.856 0.856-87.272 91.232-80.314 98.261s116.922-107.681 118.955-109.821c11.145-10.693 26.305-17.277 43.002-17.277 34.326 0 62.154 27.827 62.154 62.154 0 16.697-6.584 31.857-17.298 43.024l0.021-0.022c-1.177 1.142-6.137 5.887-7.957 7.778 0 0-109.143 97.226-100.83 105.504s143.967-118.135 144.181-118.135c10.943-10.267 25.708-16.573 41.946-16.573 33.893 0 61.369 27.476 61.369 61.369 0 15.359-5.642 29.399-14.966 40.163l0.065-0.077c-0.428 1.284-103.47 108.822-95.3 116.922s109.964-96.62 110.178-96.834c11.33-11.757 27.213-19.058 44.802-19.058 34.346 0 62.189 27.843 62.189 62.189 0 17.615-7.324 33.52-19.092 44.835l-0.020 0.019-1.070 0.642z" />
<glyph unicode="&#xe904;" glyph-name="pentool" d="M962.56 642.859l-255.96 256.3c-24.12 24.24-66.44 24.22-90.52 0l-85.3-85.4c-11.592-11.601-18.761-27.624-18.761-45.32s7.169-33.719 18.761-45.32l256-256.32c11.582-11.585 27.584-18.75 45.26-18.75s33.678 7.166 45.26 18.75l85.32 85.42c11.598 11.602 18.771 27.629 18.771 45.33s-7.173 33.727-18.771 45.33v0zM512.92 680.239c-3.851 3.867-9.179 6.261-15.067 6.261-4.128 0-7.981-1.177-11.243-3.213l0.090 0.052c-62.3-38.18-159.88-83.7-271.040-83.7-9.696-0.007-17.881-6.474-20.482-15.329l-0.038-0.151-151.66-530.76c-0.508-1.735-0.801-3.729-0.801-5.791 0-11.786 9.554-21.34 21.34-21.34 6.080 0 11.566 2.542 15.452 6.622l0.008 0.009 253.8 268.68c7.061 7.69 11.388 17.989 11.388 29.298 0 1.989-0.134 3.947-0.393 5.866l0.025-0.224c-2.94 25.76 8.86 49.22 31.52 62.8 9.187 5.401 20.236 8.592 32.030 8.592 35.346 0 64-28.654 64-64s-28.654-64-64-64c-2.604 0-5.172 0.156-7.695 0.458l0.305-0.030c-1.753 0.256-3.777 0.403-5.835 0.403-11.235 0-21.452-4.362-29.049-11.484l0.023 0.021-268.7-253.78c-4.131-3.897-6.702-9.408-6.702-15.52 0-11.775 9.545-21.32 21.32-21.32 0.008 0 0.016 0 0.024 0h-0.001c2.089 0.006 4.105 0.305 6.014 0.858l-0.154-0.038 530.78 151.64c9.006 2.639 15.473 10.824 15.48 20.519v0.001c0 111.16 45.52 208.76 83.7 271.040 1.971 3.171 3.139 7.020 3.139 11.141 0 5.887-2.384 11.218-6.24 15.079v0z" />
<glyph unicode="&#xe905;" glyph-name="videocam" horiz-adv-x="1162" d="M845.367 28.757c0-22.067-25.228-39.939-56.364-39.939h-732.61c-31.165 0-56.393 17.872-56.393 39.939v518.942c0 22.067 25.228 39.91 56.364 39.91h732.61c31.136 0 56.364-17.872 56.364-39.91zM352.244 748.665c-0.017-77.793-63.084-140.85-140.88-140.85-77.806 0-140.88 63.074-140.88 140.88s63.074 140.88 140.88 140.88v0c77.809-0.017 140.88-63.098 140.88-140.909v0zM774.913 783.877c0-97.269-78.852-176.122-176.122-176.122s-176.122 78.852-176.122 176.122c0 97.269 78.852 176.122 176.122 176.122v0c97.269 0 176.122-78.852 176.122-176.122v0zM1162.398-28.788s-4.697-35.213-37.576-35.213-244.213 197.155-244.213 223.092v258.304c0 25.937 206.785 223.092 244.213 223.092s37.576-35.242 37.576-35.242z" />
<glyph unicode="&#xe906;" glyph-name="wallet" horiz-adv-x="791" d="M149.152 721.867l367.192 100.228-19.394 39.305c-8.65 17.176-26.143 28.753-46.339 28.753-8.365 0-16.267-1.986-23.258-5.512l0.296 0.135-328.714-162.909zM630.329 819.199c-4.846-0.015-9.527-0.693-13.966-1.95l0.364 0.088-349.712-95.47h429.304l-16.136 59.164c-6.129 22.164-26.116 38.167-49.841 38.167-0.005 0-0.010 0-0.015 0h0.001zM750.209 685.665h-764.432c-0.034 0-0.074 0-0.115 0-16.273 0-30.788-7.529-40.25-19.294l-0.078-0.1c-4.248-5.274-7.522-11.531-9.429-18.358l-0.087-0.364c-1.144-4.053-1.821-8.714-1.862-13.526v-576.307c0-28.563 23.155-51.717 51.717-51.717v0h764.432c28.563 0 51.717 23.155 51.717 51.717v0 144.304h-306.89c-48.556 0-87.919 39.363-87.919 87.919v0 115.071c0 0.004 0 0.008 0 0.013 0 48.492 39.311 87.803 87.803 87.803 0.005 0 0.009 0 0.014 0h306.992v141.123c0 0.038 0 0.084 0 0.129 0 28.491-23.097 51.588-51.588 51.588-0.009 0-0.018 0-0.027 0h0.001zM838.128 443.319c-5.053 4.64-11.084 8.306-17.739 10.646l-0.362 0.111c-5.011 1.757-10.788 2.778-16.801 2.793h-308.293c-28.563 0-51.717-23.155-51.717-51.717v0-115.071c0-28.563 23.155-51.717 51.717-51.717v0h308.338c6.020 0.015 11.797 1.036 17.178 2.905l-0.37-0.112c7.029 2.409 13.067 6.081 18.132 10.786l-0.031-0.029c10.345 9.459 16.808 23.014 16.808 38.078 0 0.031 0 0.063 0 0.094v-0.005 115.071c0 0.028 0 0.062 0 0.095 0 15.063-6.464 28.616-16.769 38.037l-0.039 0.036zM602.919 337.298c0-14.281-11.577-25.859-25.859-25.859v0h-17.222c-14.281 0-25.859 11.577-25.859 25.859v0 17.17c0 0.048-0.001 0.106-0.001 0.163 0 8.169 3.867 15.435 9.871 20.067l0.059 0.044c4.342 3.439 9.886 5.534 15.917 5.585h17.182c14.281 0 25.859-11.577 25.859-25.859v0z" />
<glyph unicode="&#xe907;" glyph-name="businessman" d="M330.398 526.33c9.29-60.384 55.951-137.237 132.592-164.262 14.403-5.256 31.032-8.296 48.37-8.296 17.56 0 34.391 3.118 49.97 8.83l-1.007-0.323c75.375 27.236 123.513 103.878 133.014 164.051 10.134 0.845 23.436 14.991 37.793 65.979 19.635 69.463-1.267 79.809-19.002 78.12 2.937 7.885 5.568 17.381 7.421 27.153l0.18 1.139c29.981 180.097-58.695 186.22-58.695 186.22s-14.779 28.292-53.417 49.616c-25.943 15.518-62.073 27.342-109.579 23.33-15.883-0.811-30.801-3.762-44.854-8.576l1.149 0.342c-18.367-6.442-34.288-14.798-48.724-25.1l0.586 0.397c-18.734-11.978-34.946-25.506-49.274-40.818l-0.131-0.142c-23.409-24.069-44.312-55.106-53.285-93.744-7.601-29.031-5.912-59.118 0.422-91.632 1.95-10.945 4.549-20.521 7.887-29.743l-0.392 1.24c-17.735 1.689-38.638-8.656-19.002-78.12 14.568-50.672 27.87-64.818 38.004-65.663zM860.16 290.071c-107.889 27.447-195.51 89.099-195.51 89.099l-68.407-216.412-12.985-40.749-0.211 0.633-11.19-34.626-36.104 102.4c88.676 123.725-17.946 122.458-23.753 122.247-5.912 0.211-112.534 1.478-23.753-122.247l-36.104-102.4-11.401 34.626-0.211-0.633-12.879 40.749-68.619 216.412s-87.541-61.651-195.405-89.099c-80.442-20.48-84.242-113.379-81.075-159.195 0 0 4.645-62.285 9.29-89.732 0 0 157.084-101.978 420.157-102.189s420.157 102.189 420.157 102.189c4.645 27.447 9.29 89.732 9.29 89.732 2.956 45.816-0.845 138.715-81.287 159.195z" />
<glyph unicode="&#xe908;" glyph-name="clipboard" d="M575.7 899.999l-7.1 20c-8.46 23.55-30.599 40.089-56.6 40.089s-48.14-16.539-56.468-39.671l-0.132-0.418-7.080-20h-56.32c-33.137 0-60-26.863-60-60v0-30c0-16.569 13.431-30 30-30v0h300c16.569 0 30 13.431 30 30v0 30c0 33.137-26.863 60-60 60v0zM812 839.999h-60v-30c0-49.706-40.294-90-90-90v0h-300c-49.706 0-90 40.294-90 90v0 30h-60c-49.706 0-90-40.294-90-90v0-720c0-49.62 40.38-94 90-94h600c49.62 0 90 44.38 90 94v720c0 49.706-40.294 90-90 90v0zM473.2 188.779l-120-120c-5.429-5.427-12.927-8.784-21.21-8.784s-15.781 3.357-21.21 8.784l-60 60c-5.21 5.389-8.421 12.74-8.421 20.841 0 16.569 13.431 30 30 30 8.101 0 15.452-3.211 20.85-8.429l38.792-38.772 98.8 98.78c5.463 5.651 13.111 9.159 21.579 9.159 16.569 0 30-13.431 30-30 0-8.468-3.508-16.116-9.15-21.571l-0.008-0.008zM473.2 398.779l-120-120c-5.429-5.427-12.927-8.784-21.21-8.784s-15.781 3.357-21.21 8.784l-60 60c-5.21 5.389-8.421 12.74-8.421 20.841 0 16.569 13.431 30 30 30 8.101 0 15.452-3.211 20.85-8.429l38.792-38.772 98.8 98.78c5.463 5.651 13.111 9.159 21.579 9.159 16.569 0 30-13.431 30-30 0-8.468-3.508-16.116-9.15-21.571l-0.008-0.008zM473.2 608.779l-120-120c-5.429-5.427-12.927-8.784-21.21-8.784s-15.781 3.357-21.21 8.784l-60 60c-5.651 5.463-9.159 13.111-9.159 21.579 0 16.569 13.431 30 30 30 8.468 0 16.116-3.508 21.571-9.15l38.808-38.788 98.8 98.8c5.48 5.782 13.215 9.38 21.79 9.38 16.569 0 30-13.431 30-30 0-8.58-3.602-16.319-9.376-21.787l-0.014-0.013zM752 119.999h-180c-16.569 0-30 13.431-30 30s13.431 30 30 30v0h180c16.569 0 30-13.431 30-30s-13.431-30-30-30v0zM752 329.999h-180c-16.569 0-30 13.431-30 30s13.431 30 30 30v0h180c16.569 0 30-13.431 30-30s-13.431-30-30-30v0zM752 539.999h-180c-16.569 0-30 13.431-30 30s13.431 30 30 30v0h180c16.569 0 30-13.431 30-30s-13.431-30-30-30v0z" />
<glyph unicode="&#xe909;" glyph-name="giftbox2" d="M957.22 760.539h-74.54c9.547 14.643 16.028 32.121 18.112 50.926l0.048 0.534c6 59.040-25.18 112-78.1 135.42-15.881 7.384-34.473 11.692-54.072 11.692-34.251 0-65.43-13.157-88.757-34.693l0.089 0.081-94-85.3c-18.358 20.117-44.688 32.689-73.955 32.689-29.314 0-55.682-12.613-73.973-32.709l-0.072-0.080-94.26 85.42c-23.248 21.451-54.434 34.604-88.691 34.604-19.581 0-38.159-4.297-54.841-12.001l0.812 0.336c-52.92-23.46-84.020-76.42-78.080-135.46 2.133-19.339 8.613-36.817 18.44-51.918l-0.28 0.458h-74.32c-36.882 0-66.78-29.898-66.78-66.78v0-100.16c0-18.446 14.954-33.4 33.4-33.4h957.2c18.446 0 33.4 14.954 33.4 33.4v0 100.16c0 36.882-29.898 66.78-66.78 66.78v0zM723.34 873.639c17.1 15.5 41.040 22.74 63.18 16.14 31.76-9.48 50.4-36.48 48-68.86-2.42-34.72-33.76-60.38-68.52-60.38h-153.82v11.14c0 0.4 0 0.78 0 1.18zM190.94 842.459c4.995 19.478 18.222 35.158 35.66 43.371l0.4 0.169c8.2 4.071 17.857 6.453 28.071 6.453 17.005 0 32.468-6.603 43.964-17.385l-0.035 0.032 112.94-102.36c0-0.32 0-0.66 0-0.98v-11.14h-157.2c-36.334 0.154-65.729 29.644-65.729 65.999 0 5.624 0.704 11.084 2.027 16.297l-0.098-0.456zM66.78 3.679c0-36.882 29.898-66.78 66.78-66.78v0h311.66v556.52h-378.44zM578.78-63.101h311.66c36.882 0 66.78 29.898 66.78 66.78v0 489.74h-378.44z" />
<glyph unicode="&#xe90a;" glyph-name="like" d="M1012.541 649.629c-14.872 162.865-130.194 281.112-274.53 281.112-99.157-0.575-185.728-53.911-233.123-133.333l-0.691-1.249c-45.616 80.477-130.473 134.026-227.883 134.583h-0.079c-144.335 0-259.657-118.248-274.53-281.112-1.051-9.246-1.651-19.963-1.651-30.819 0-27.029 3.718-53.19 10.67-77.999l-0.486 2.030c23.129-93.728 72.58-173.658 139.991-233.912l0.443-0.389 353.524-320.853 359.131 320.61c67.806 60.679 117.244 140.593 139.77 231.145l0.664 3.156c6.447 22.834 10.153 49.058 10.153 76.147 0 10.793-0.588 21.449-1.735 31.938l0.115-1.296zM312.076 772.997c-86.122-0.139-155.9-69.916-156.038-156.025v-0.013c0-10.772-8.733-19.505-19.505-19.505s-19.505 8.733-19.505 19.505v0c0 107.722 87.326 195.048 195.048 195.048v0c10.772 0 19.505-8.733 19.505-19.505s-8.733-19.505-19.505-19.505v0z" />
<glyph unicode="&#xe90b;" glyph-name="medal" d="M512 789.999c-127.025 0-230-102.975-230-230s102.975-230 230-230c127.025 0 230 102.975 230 230v0c-0.148 126.966-103.034 229.852-229.986 230h-0.014zM485.14 465.619l-86.54 85.68 42.2 42.7 44-43.56 98.24 98.78 42.54-42.3zM874 638.419c-6.978 5.543-11.414 14.028-11.414 23.549 0 4.002 0.784 7.821 2.206 11.312l-0.072-0.201c4.465 10.929 7.057 23.612 7.057 36.9 0 50.104-36.849 91.602-84.925 98.871l-0.553 0.069c-13.152 1.962-23.418 12.228-25.36 25.215l-0.020 0.165c-7.338 48.628-48.836 85.477-98.94 85.477-13.288 0-25.971-2.592-37.57-7.297l0.67 0.24c-3.29-1.35-7.109-2.134-11.111-2.134-9.521 0-18.006 4.435-23.502 11.352l-0.047 0.062c-18.477 23.213-46.731 37.962-78.43 37.962s-59.953-14.749-78.274-37.759l-0.156-0.203c-5.543-6.978-14.028-11.414-23.549-11.414-4.002 0-7.821 0.784-11.312 2.206l0.201-0.072c-10.929 4.465-23.612 7.057-36.9 7.057-50.104 0-91.602-36.849-98.871-84.925l-0.069-0.553c-1.962-13.152-12.228-23.418-25.215-25.36l-0.165-0.020c-48.628-7.338-85.477-48.836-85.477-98.94 0-13.288 2.592-25.971 7.297-37.57l-0.24 0.67c1.353-3.294 2.138-7.117 2.138-11.123 0-9.514-4.429-17.994-11.337-23.49l-0.061-0.047c-23.213-18.477-37.962-46.731-37.962-78.43s14.749-59.953 37.759-78.274l0.203-0.156c6.978-5.543 11.414-14.028 11.414-23.549 0-4.002-0.784-7.821-2.206-11.312l0.072 0.201c-4.465-10.929-7.057-23.612-7.057-36.9 0-50.104 36.849-91.602 84.925-98.871l0.553-0.069c13.152-1.962 23.418-12.228 25.36-25.215l0.020-0.165c7.338-48.628 48.836-85.477 98.94-85.477 13.288 0 25.971 2.592 37.57 7.297l-0.67-0.24c3.294 1.353 7.117 2.138 11.123 2.138 9.514 0 17.994-4.429 23.49-11.337l0.047-0.061c18.477-23.213 46.731-37.962 78.43-37.962s59.953 14.749 78.274 37.759l0.156 0.203c5.543 6.978 14.028 11.414 23.549 11.414 4.002 0 7.821-0.784 11.312-2.206l-0.201 0.072c10.929-4.465 23.612-7.057 36.9-7.057 50.104 0 91.602 36.849 98.871 84.925l0.069 0.553c1.962 13.152 12.228 23.418 25.215 25.36l0.165 0.020c48.628 7.338 85.477 48.836 85.477 98.94 0 13.288-2.592 25.971-7.297 37.57l0.24-0.67c-1.353 3.294-2.138 7.117-2.138 11.123 0 9.514 4.429 17.994 11.337 23.49l0.061 0.047c23.206 18.478 37.949 46.727 37.949 78.42s-14.744 59.943-37.746 78.264l-0.203 0.156zM512 269.999c-160 0-290 130-290 290s130 290 290 290 290-130 290-290-130-290-290-290zM623.2 144.959c-28.75-27.822-67.977-44.968-111.21-44.968s-82.46 17.147-111.254 45.010l0.044-0.042c-11.663-3.070-25.053-4.832-38.854-4.832-14.198 0-27.96 1.865-41.054 5.364l1.108-0.252v-209.24h55.2l134.82 48.14 134.8-48.14h55.2v209.26c-11.998-3.252-25.773-5.12-39.985-5.12-13.787 0-27.163 1.758-39.917 5.063l1.102-0.242z" />
<glyph unicode="&#xe90c;" glyph-name="pig2" horiz-adv-x="876" d="M358.928-66.64h-150.433c-9.158 6.228-14.806 14.040-14.938 25.917-0.528 51.622-21.298 93.928-54.895 133.094-68.777 80.205-107.124 171.784-91.157 280.201 4.204 29.525 12.757 56.203 25.066 80.666l-0.68-1.491 8.604-5.991c49.827-35.809 112.063-57.266 179.311-57.266 143.596 0 264.342 97.835 299.217 230.484l0.481 2.155c6.772 27.378 23.321 50.093 45.645 64.725l0.409 0.252c21.573 14.254 47.098 24.462 74.558 28.884l1.107 0.147c12.51 2.138 23.753 2.27 31.855-9.264s3.748-22.195-2.639-33.016c-12.299-20.797-19.477-43.256-18.474-67.695 0.607-17.049 5.278-31.221 19.741-43.414 37.16-31.274 66.586-69.569 83.794-115.015 8.313-21.984 18.474-30.377 41.989-28.318 22.433 1.953 39.165-16.152 39.588-38.743q0.792-51.438 0-102.928c-0.396-23.146-17.26-39.086-40.617-39.772-9.184-0.264-18.474 0-27.21 0-31.353-74.636-51.86-108.47-94.219-145.155-39.403-33.993-60.516-74.689-56.32-127.182 1.056-13.196-2.903-24.016-14.568-31.248h-150.618c-21.113 12.562-11.137 34.309-14.911 51.622-18.131 0-35.576-0.369-52.995 0s-34.626 1.795-53.074 2.798c0-8.234-0.554-15.677 0-22.987 1.346-13.143-2.217-23.911-13.618-31.459zM668.318 478.218c-0.071 0.001-0.155 0.001-0.238 0.001-17.947 0-32.512-14.482-32.646-32.397v-0.013c-0.004-0.19-0.006-0.415-0.006-0.639 0-18.174 14.556-32.948 32.646-33.3l0.033-0.001h0.317c17.966 0.552 32.423 14.834 33.251 32.676l0.003 0.076c0 0 0 0.001 0 0.001 0 18.471-14.907 33.461-33.346 33.596h-0.013zM2.639 725.112c3.431 14.885 6.202 29.928 10.398 44.602 33.122 115.913 143.122 192.449 265.052 184.663 118.367-7.574 218.682-99.946 236.153-217.653 1.866-11.651 2.933-25.084 2.933-38.766 0-142.303-115.36-257.663-257.663-257.663-2.544 0-5.080 0.037-7.606 0.11l0.371-0.009c-124.595 3.167-230.162 98.072-247.212 222.087-0.652 2.764-1.485 5.166-2.529 7.452l0.101-0.247zM174.186 606.138v-59.434h65.979v59.962h80.838v41.91h-80.125v23.753c28.714 2.771 56.584 3.114 83.424 8.551 50.751 10.293 79.914 49.353 79.334 101.424-0.581 50.699-27.5 82.685-80.336 93.585-47.109 9.659-94.351 5.278-141.486-0.95-7.759-1.003-8.155-5.938-8.129-12.219 0.158-42.227 0-84.454 0-126.68v-19.398h-40.591v-41.989h39.588v-26.55h-39.403v-42.042zM240.165 718.752v106.174c18.976 0 37.951 2.402 56.030-0.554 26.867-4.407 37.397-21.641 36.553-52.256-0.713-26.392-16.653-44.866-43.969-49.3-15.36-2.454-31.195-2.692-48.614-4.064z" />
<glyph unicode="&#xe90d;" glyph-name="bookmark" horiz-adv-x="768" d="M93.867 959.999c-0.115 0.001-0.252 0.001-0.389 0.001-51.841 0-93.867-42.026-93.867-93.867 0-3.005 0.141-5.976 0.417-8.909l-0.029 0.375v-836.267c0-47.128 38.205-85.333 85.333-85.333v0h682.667v1024zM34.133 21.332v768c14.084-10.655 31.893-17.067 51.2-17.067v0-802.133c-28.133 0.356-50.844 23.067-51.2 51.166v0.034zM733.867-29.868h-614.4v802.133h51.2v-430.933c-0.001-0.070-0.001-0.153-0.001-0.236 0-11.669 7.873-21.499 18.596-24.468l0.178-0.042c1.057-0.141 2.279-0.221 3.52-0.221s2.463 0.080 3.661 0.236l-0.141-0.015h2.987c1.883 0.159 3.622 0.538 5.27 1.112l-0.15-0.045h2.347c1.713 0.755 3.19 1.684 4.507 2.796l-0.027-0.023 1.92 1.28c1.954 1.733 3.646 3.697 5.052 5.862l0.068 0.111 71.68 120.32 72.533-119.040c4.481-7.366 12.464-12.21 21.579-12.21 1.725 0 3.409 0.173 5.036 0.504l-0.162-0.027h2.347c10.503 3.203 18.031 12.762 18.133 24.095v430.945h324.267zM377.813 798.079v0l-2.347-4.693-1.707-4.053 1.707-2.773v-413.44l-85.333 142.293-85.333-142.293v412.16l27.52 55.253h166.613zM420.48 806.399l33.707 68.267h-242.773l-34.347-68.267h-79.573c-0.691-0.027-1.503-0.043-2.318-0.043-31.334 0-57.264 23.134-61.642 53.254l-0.040 0.336c-0.19 1.793-0.299 3.872-0.299 5.978 0 33.108 26.839 59.947 59.947 59.947 0.255 0 0.51-0.002 0.764-0.005h639.961v-17.067h-85.333c-9.426 0-17.067-7.641-17.067-17.067s7.641-17.067 17.067-17.067h85.333v-17.067h-68.267c-9.426 0-17.067-7.641-17.067-17.067s7.641-17.067 17.067-17.067v0h68.267v-17.067z" />
<glyph unicode="&#xe90e;" glyph-name="cart" horiz-adv-x="950" d="M507.103 500.078c4.583-4.556 10.9-7.372 17.875-7.372 0.010 0 0.021 0 0.031 0h-0.002c6.978 0.034 13.294 2.842 17.908 7.376l155.655 155.655c4.869 4.625 7.897 11.147 7.897 18.376 0 13.989-11.34 25.329-25.329 25.329-7.229 0-13.751-3.029-18.366-7.886l-0.010-0.011-137.755-137.966-55.608 55.608c-4.531 4.305-10.672 6.952-17.431 6.952-13.989 0-25.329-11.34-25.329-25.329 0-6.759 2.648-12.9 6.963-17.442l-0.010 0.011zM269.086 289.444h566.396c62.467 0.149 113.067 50.749 113.216 113.202v238.768c0 13.96-11.317 25.276-25.276 25.276s-25.276-11.317-25.276-25.276v-238.438c-0.015-34.66-28.109-62.754-62.768-62.769h-566.292c-34.66 0.015-62.754 28.109-62.769 62.768v465.925c0.003 0.1 0.005 0.217 0.005 0.335 0 0.813-0.078 1.607-0.228 2.376l0.013-0.078v0.632c0 0.632-0.211 1.264-0.211 1.685-0.042 0.545-0.193 1.047-0.431 1.495l0.010-0.020c0 0.211-0.211 0.632-0.211 0.843-0.211 0.632-0.421 1.053-0.632 1.685 0 0.211-0.211 0.421-0.211 0.632s-0.421 1.053-0.632 1.474-0.211 0.632-0.421 0.843l-0.632 1.369c-0.211 0.421-0.421 0.632-0.632 1.053s-0.421 0.632-0.632 0.843c-0.231 0.406-0.512 0.754-0.839 1.050l-0.004 0.003-0.527 0.632c-0.421 0.421-0.632 0.843-1.053 1.264s-0.421 0.421-0.632 0.421c-0.362 0.408-0.778 0.758-1.24 1.040l-0.024 0.014-0.632 0.632c-0.421 0.211-0.843 0.632-1.264 0.843s-1.053 0.632-1.474 1.053c-0.026-0.006-0.057-0.009-0.088-0.009-0.247 0-0.448 0.2-0.448 0.448 0 0.031 0.003 0.061 0.009 0.091v-0.003l-2.633 1.264-155.554 65.191c-2.891 1.25-6.258 1.977-9.795 1.977-13.946 0-25.252-11.306-25.252-25.252 0-10.41 6.299-19.348 15.293-23.212l0.164-0.063 140.072-59.188v-626.849c0-0.022 0-0.047 0-0.073 0-59.228 45.48-107.834 103.423-112.798l0.42-0.029c-11.684-17.403-18.648-38.827-18.648-61.876 0-61.844 50.135-111.979 111.979-111.979s111.979 50.135 111.979 111.979c0 22.872-6.857 44.143-18.629 61.868l0.258-0.413h268.243c-11.539-17.339-18.412-38.646-18.412-61.558 0-61.917 50.193-112.11 112.11-112.11s112.11 50.193 112.11 112.11c0 61.905-50.174 112.091-112.074 112.11h-539.226c-34.66 0.015-62.754 28.109-62.769 62.768v83.202c17.614-11.989 39.354-19.15 62.764-19.168h0.005zM414.213 50.584c-0.060-33.923-27.574-61.4-61.505-61.4-33.968 0-61.505 27.537-61.505 61.505s27.537 61.505 61.505 61.505c0.037 0 0.074 0 0.111 0h-0.006c33.95-0.045 61.46-27.555 61.505-61.501v-0.004zM869.71 50.584c-0.060-33.923-27.574-61.4-61.505-61.4-33.968 0-61.505 27.537-61.505 61.505 0 33.931 27.477 61.445 61.394 61.505h0.006c33.95-0.045 61.46-27.555 61.505-61.501v-0.004z" />
<glyph unicode="&#xe90f;" glyph-name="list" horiz-adv-x="1135" d="M268.712 842.48h828.963c20.407 0 36.951 16.543 36.951 36.951s-16.543 36.951-36.951 36.951h-828.963c-20.407 0-36.951-16.543-36.951-36.951s16.543-36.951 36.951-36.951v0zM1097.676 485.402h-828.963c-20.345 0-36.838-16.493-36.838-36.838s16.493-36.838 36.838-36.838h828.963c20.345 0 36.838 16.493 36.838 36.838s-16.493 36.838-36.838 36.838v0zM1097.676 51.71h-828.963c-20.345 0-36.838-16.493-36.838-36.838s16.493-36.838 36.838-36.838h828.963c20.345 0 36.838 16.493 36.838 36.838s-16.493 36.838-36.838 36.838v0zM79.1 801.8c43.463 0.129 78.646 35.392 78.646 78.873 0 43.561-35.313 78.874-78.874 78.874-43.402 0-78.616-35.055-78.872-78.397v-0.024c-0.001-0.134-0.001-0.293-0.001-0.452 0-43.561 35.313-78.874 78.874-78.874 0.080 0 0.16 0 0.24 0h-0.012zM79.1 370.594c43.463 0.129 78.647 35.392 78.647 78.873 0 43.561-35.313 78.874-78.874 78.874-43.481 0-78.745-35.184-78.873-78.635v-0.012c0-0.067 0-0.147 0-0.226 0-43.561 35.313-78.874 78.874-78.874 0.080 0 0.159 0 0.239 0h-0.012zM79.1 93.972c-43.685 0-79.1-35.414-79.1-79.1s35.414-79.1 79.1-79.1c43.685 0 79.1 35.414 79.1 79.1v0c0 43.685-35.414 79.1-79.1 79.1v0z" />
<glyph unicode="&#xe910;" glyph-name="speech" horiz-adv-x="1028" d="M969.649 111.905c34.155 54.297 54.418 120.323 54.418 191.082 0 178.117-128.395 326.246-297.682 356.882l-2.21 0.332c-29.856 170.124-178.665 299.799-357.225 299.799-199.98 0-362.692-162.712-362.692-362.692 0-0.17 0-0.371 0-0.573 0-70.55 20.251-136.371 55.256-191.966l-0.878 1.495-58.635-175.906 175.906 58.635c36.75-23.221 79.843-40.317 125.992-48.611l2.185-0.326c30.988-171.473 179.105-299.844 357.205-299.844 70.763 0 136.792 20.265 192.601 55.308l-1.511-0.885 175.906-58.635zM185.236 358.588l-85.522-28.49 28.516 85.495-8.831 12.904c-32.576 47.242-52.032 105.717-52.032 168.737 0 165.473 134.142 299.615 299.615 299.615s299.615-134.142 299.615-299.615c0-165.473-134.142-299.615-299.615-299.615-63.019 0-121.494 19.456-169.745 52.689l1.009-0.657zM928.544 35.739l-85.495 28.49-12.931-8.831c-47.274-32.638-105.802-52.133-168.884-52.133-141.259 0-259.685 97.756-291.32 229.307l-0.415 2.043c197.982 1.367 358.75 162.16 360.064 360.064 133.606-32.041 231.373-150.473 231.373-291.74 0-63.080-19.494-121.606-52.785-169.885l0.656 1.006-8.831-12.904z" />
<glyph unicode="&#xe911;" glyph-name="distcourses" d="M362 56v-60h-90c-16.569 0-30-13.431-30-30s13.431-30 30-30v0h480c16.569 0 30 13.431 30 30s-13.431 30-30 30v0h-90v60zM0 236v-30c0-49.706 40.294-90 90-90v0h842c49.62 0 92 40.38 92 90v30zM812 776h-240c-16.569 0-30-13.431-30-30v0-120c0-16.569 13.431-30 30-30v0c16.569 0 30-13.431 30-30v0-11.46l76.58 38.3c3.905 1.993 8.517 3.16 13.402 3.16 0.006 0 0.013 0 0.019 0h119.999c16.569 0 30 13.431 30 30v0 120c0 16.569-13.431 30-30 30v0zM932 960h-842c-49.62 0-90-44.38-90-94v-570h122c0 67.84 38.14 126.3 93.7 156.98-20.851 21.559-33.7 50.969-33.7 83.381 0 66.274 53.726 120 120 120s120-53.726 120-120c0-32.411-12.849-61.821-33.732-83.414l0.032 0.033c55.56-30.68 93.7-89.14 93.7-156.98h542v570c0 49.62-42.38 94-92 94zM902 626c0-49.706-40.294-90-90-90v0h-112.92l-113.68-56.84c-3.905-1.992-8.516-3.159-13.4-3.159-16.568 0-29.999 13.431-30 29.999v0 35.12c-35.231 12.776-59.955 45.935-60 84.875v120.005c0 49.706 40.294 90 90 90v0h240c49.706 0 90-40.294 90-90v0zM182 296h240c0 66.274-53.726 120-120 120s-120-53.726-120-120v0zM362 536c0 33.137-26.863 60-60 60s-60-26.863-60-60c0-33.137 26.863-60 60-60v0c33.137 0 60 26.863 60 60v0z" />
<glyph unicode="&#xe912;" glyph-name="more-zoom" horiz-adv-x="931" d="M410.87 675.663h-39.084v-117.252h-117.252v-38.107h117.252v-117.252h39.084v117.252h117.252v39.084h-117.252zM390.84 871.083c-183.4-0.102-332.035-148.8-332.035-332.214 0-183.477 148.737-332.214 332.214-332.214 71.059 0 136.907 22.31 190.923 60.307l-1.056-0.704 249.649-251.115c1.062-1.065 2.53-1.724 4.153-1.724s3.091 0.659 4.153 1.724v0l48.855 48.855c0.926 1.032 1.493 2.404 1.493 3.908s-0.566 2.876-1.498 3.914l0.005-0.005-247.695 248.183c51.106 58.129 82.291 134.858 82.291 218.871 0 183.209-148.303 331.779-331.41 332.213h-0.042zM390.84 245.739c-161.891 0-293.13 131.239-293.13 293.13s131.239 293.13 293.13 293.13c161.891 0 293.13-131.239 293.13-293.13v0c0-161.891-131.239-293.13-293.13-293.13v0z" />
<glyph unicode="&#xe913;" glyph-name="student-cap" horiz-adv-x="1611" d="M804.774 281.184l-497.522 153.1v-255.71c0-118.221 222.779-214.066 497.522-214.066s497.522 95.845 497.522 214.066c0 0.921-0.316 1.869-0.316 2.764v252.946zM-28.956 610.286l177.713-63.572 15.136 32.431 65.283 5.528 9.319-9.687-56.017-13.162-8.16-24.165s-126.565-264.713-107.981-393.99c0 0 78.972-47.12 157.943 0l21.059 353.793v29.43l117.51 26.508-8.292-20.427-87.711-28.377 40.539-14.478 497.522-153.1 497.522 153.1 336.314 120.274-833.968 320.652z" />
<glyph unicode="&#xe914;" glyph-name="freecourses" horiz-adv-x="851" d="M765.083 291.513c-8.235 19.629-27.985 32.209-46.824 39.957l-62.838 28.927c0 46.126-0.486 275.872-0.243 300.059 0.365 37.587-4.132 71.163-13.977 100.273l78.243 28.259 0.182-72.288h-5.318c-0.184 0.018-0.398 0.028-0.614 0.028-3.512 0-6.403-2.66-6.768-6.075l-0.003-0.030-6.898-59.708c-0.027-0.229-0.043-0.495-0.043-0.764 0-3.517 2.668-6.412 6.091-6.769l0.029-0.002h54.694c3.458 0.389 6.12 3.297 6.12 6.826 0 0.271-0.016 0.539-0.046 0.802l0.003-0.032q-2.066 17.593-4.132 35.156l-2.856 24.521c-0.382 3.448-3.279 6.105-6.798 6.105-0.217 0-0.432-0.010-0.644-0.030l0.027 0.002h-5.318l0.334 82.224 2.765 1.003 9.116 3.342c7.67 2.839 13.037 10.091 13.037 18.596s-5.368 15.757-12.9 18.552l-0.137 0.044-327.224 118.322c-2.002 0.752-4.315 1.188-6.73 1.188s-4.729-0.436-6.866-1.232l0.136 0.044-327.255-118.261c-7.67-2.839-13.037-10.091-13.037-18.596s5.368-15.757 12.9-18.552l0.137-0.044 118.687-42.905c-10.362-29.778-15.193-64.266-14.707-102.734v-297.385l-62.838-28.927c-18.87-7.748-37.405-19.508-46.824-39.957 0 0-138.559-353.933-63.415-353.933h806.134c75.144 0-63.385 353.933-63.385 353.933zM551.35 321.899s-105.469-34.944-125.797-157.702c0-0.334-0.243-0.334-0.304 0-20.328 122.758-125.797 157.702-125.797 157.702l69.128 68.641c-97.447 43.725-123.366 192.342-123.366 192.342-2.919 10.509-5.076 22.85-6.037 35.525l-0.040 0.665c48.8 3.312 219.081 17.988 230.719 73.199 16.044-29.656 101.033-104.193 135.429-109.845 0 0-33.424-146.976-124.582-191.795z" />
<glyph unicode="&#xe915;" glyph-name="vebinar" d="M101.993-64v59.996h130.265c46.222 0 69.62 23.298 69.67 69.22 0 6.575 0 13.174 0 20.249h419.969c0-7.299 0-14.799 0-22.298 0-42.647 24.323-67.12 66.72-67.17 43.947 0 87.894 0 133.265 0v-59.996zM0 839.934h119.391v-573.958h-119.391v573.958zM904.534 839.934h119.391v-573.958h-119.391v573.958zM0 203.98h1023.925v-57.996h-1023.925v57.996zM180.612 960h83.619c41.647 0 83.294 0.225 124.991 0 44.222-0.3 77.494-25.273 89.343-67.22 2.111-7.337 3.325-15.764 3.325-24.475 0-0.052 0-0.104 0-0.157v0.008q0.275-239.357 0.125-478.715c0-1.3-0.2-2.5-0.35-4.65h-301.053zM843.613 959.125v-574.583h-301.653v9.999q0 235.408 0 470.816c0 40.947 21.348 74.095 56.071 87.619 1.034 0.287 2.266 0.516 3.529 0.642l0.095 0.008v-384.447l89.268 87.244 92.318-90.418v393.121zM180.662 323.397h301.078v-58.696h-301.078v58.696zM542.735 323.297h300.728v-58.846h-300.728v58.846zM662.451 959.425h61.021v-246.232l-29.373 30.948-31.648-33.573z" />
<glyph unicode="&#xe916;" glyph-name="checkok" d="M489.6-41.58h-0.28c-270.271 0.154-489.31 219.288-489.31 489.58 0 135.291 54.877 257.764 143.585 346.376l0.004 0.004c88.097 88.462 209.997 143.202 344.682 143.202 0.464 0 0.927-0.001 1.39-0.002h0.208c0.114 0 0.25 0 0.385 0 71.926 0 140.206-15.609 201.639-43.623l-3.044 1.243c14.442-6.662 24.284-21.017 24.284-37.671 0-22.842-18.518-41.36-41.36-41.36-6 0-11.701 1.278-16.847 3.575l0.263-0.105c-48.523 22.249-105.267 35.22-165.041 35.22-0.112 0-0.224 0-0.336 0h-0.223c-0.006 0-0.013 0-0.020 0-224.618 0-406.723-182.021-406.86-406.607v-0.013c-0.12-224.34 182.28-406.96 406.62-407.1h0.24c224.618 0 406.723 182.021 406.86 406.607v41.673c0 22.842 18.518 41.36 41.36 41.36s41.36-18.518 41.36-41.36v0-41.68c-0.16-270.265-219.277-489.298-489.558-489.32h-0.002zM489.58 316.74c-0.011 0-0.025 0-0.038 0-11.409 0-21.735 4.633-29.201 12.119l-134.461 134.461c-7.486 7.486-12.116 17.827-12.116 29.25 0 22.846 18.52 41.366 41.366 41.366 11.423 0 21.764-4.63 29.25-12.116v0l105.22-105.22 463.78 463.8c7.486 7.486 17.827 12.116 29.25 12.116 22.846 0 41.366-18.52 41.366-41.366 0-11.423-4.63-21.764-12.116-29.25v0l-493.040-493.040c-7.467-7.488-17.794-12.12-29.202-12.12-0.020 0-0.041 0-0.061 0h0.003z" />
<glyph unicode="&#xe917;" glyph-name="books2" d="M0 877.161h183.795v-91.897h-183.795zM0 748.505h183.795v-624.903h-183.795zM33.739 239.13c0-31.685 25.686-57.37 57.37-57.37s57.37 25.686 57.37 57.37c0 31.639-25.611 57.295-57.232 57.37h-0.007c0 0 0 0 0 0-31.685 0-57.37-25.686-57.37-57.37 0-0.046 0-0.092 0-0.138v0.007zM0 13.325h183.795v73.518h-183.795zM220.554 99.709v-86.384h238.933v86.777c-9.715 6.958-40.041 23.368-110.277 23.368-2.654 0.081-5.777 0.128-8.91 0.128-43.223 0-84.383-8.832-121.774-24.79l2.027 0.769zM220.554 628.382c35.356-15.189 76.508-24.022 119.722-24.022 3.142 0 6.272 0.047 9.391 0.139l-0.457-0.011c69.711 0 100.168 16.279 110.277 23.631v65.641h-238.933zM220.554 588.997v-449.51c36.371 13.262 78.358 20.932 122.137 20.932 2.292 0 4.579-0.021 6.861-0.063l-0.342 0.005c3.024 0.119 6.574 0.187 10.141 0.187 36.032 0 70.449-6.912 101.998-19.483l-1.862 0.654v444.521c-29.602-11.841-63.913-18.709-99.829-18.709-3.675 0-7.332 0.072-10.972 0.214l0.524-0.016c-1.901-0.035-4.144-0.056-6.391-0.056-43.823 0-85.855 7.669-124.827 21.737l2.561-0.808zM849.264 881.231l-126.031-26.256 18.511-89.666 126.031 26.256zM1000.632 143.032l-126.031-26.256-125.637 612.562 126.031 26.256zM956.915 252.127c-6.433 31.114-31.245 52.513-55.401 47.262s-38.728-34.265-32.295-65.641 31.245-52.513 55.401-47.262 38.728 34.133 32.295 65.641zM1007.984 107.717l-126.031-26.256 14.704-71.943 126.031 26.256zM514.626 785.264h183.795v91.897h-183.795zM514.626 13.325h183.795v73.518h-183.795zM514.626 215.499h183.795v441.108h-183.795zM514.626 123.602h183.795v55.138h-183.795zM514.626 693.366h183.795v55.138h-183.795z" />
<glyph unicode="&#xe918;" glyph-name="calendar" d="M128 800v128c0 17.673 14.327 32 32 32s32-14.327 32-32v0-128c0-17.673-14.327-32-32-32s-32 14.327-32 32v0zM672 768c17.673 0 32 14.327 32 32v0 128c0 17.673-14.327 32-32 32s-32-14.327-32-32v-128c0-17.673 14.327-32 32-32v0zM1024 192c0-141.385-114.615-256-256-256s-256 114.615-256 256c0 141.385 114.615 256 256 256v0c141.379-0.014 255.986-114.621 256-255.999v-0.001zM960 192c0 106.039-85.961 192-192 192s-192-85.961-192-192c0-106.039 85.961-192 192-192v0c105.993 0.114 191.886 86.007 192 191.989v0.011zM256 576h-128v-128h128zM128 256h128v128h-128zM320 448h128v128h-128zM320 256h128v128h-128zM64 198.5v441.5h704v-128h64v249.625c0.001 0.164 0.002 0.358 0.002 0.552 0 38.388-30.979 69.541-69.3 69.823h-26.702v-32c0-35.346-28.654-64-64-64s-64 28.654-64 64v0 32h-384v-32c0-35.346-28.654-64-64-64s-64 28.654-64 64v0 32h-26.65c-38.362-0.282-69.352-31.446-69.352-69.848 0-0.185 0.001-0.37 0.002-0.555v0.028-563.25c-0.001-0.112-0.001-0.245-0.001-0.378 0-38.432 30.971-69.63 69.316-69.997h378.685v64h-378.65c-3.032 0.358-5.361 2.912-5.361 6.011 0 0.128 0.004 0.255 0.012 0.382l-0.001-0.017zM640 448v128h-128v-128zM864 192h-96v96c0 17.673-14.327 32-32 32s-32-14.327-32-32v-128c0-0.007 0-0.016 0-0.025 0-17.659 14.316-31.975 31.975-31.975 0.009 0 0.018 0 0.026 0h127.999c17.673 0 32 14.327 32 32s-14.327 32-32 32v0z" />
<glyph unicode="&#xe919;" glyph-name="conference" d="M601.76 744.7c22.646 22.835 36.64 54.281 36.64 88.995 0 69.809-56.591 126.4-126.4 126.4s-126.4-56.591-126.4-126.4c0-34.714 13.994-66.16 36.649-89.004l-0.009 0.009c-51.741-28.105-88.585-78.017-98.368-137.067l-0.152-1.113h376.56c-9.935 60.163-46.779 110.075-97.516 137.68l-1.004 0.5zM923.1 134.18c22.646 22.835 36.64 54.281 36.64 88.995 0 69.809-56.591 126.4-126.4 126.4s-126.4-56.591-126.4-126.4c0-34.714 13.994-66.16 36.649-89.004l-0.009 0.009c-29.167-15.852-53.059-38.047-70.446-64.853l-0.454-0.747c-17.842 27.553-41.734 49.748-69.894 65.098l-1.006 0.502c22.646 22.835 36.64 54.281 36.64 88.995 0 69.809-56.591 126.4-126.4 126.4s-126.4-56.591-126.4-126.4c0-34.714 13.994-66.16 36.649-89.004l-0.009 0.009c-29.167-15.852-53.059-38.047-70.446-64.853l-0.454-0.747c-17.846 27.55-41.737 49.744-69.894 65.098l-1.006 0.502c22.646 22.835 36.64 54.281 36.64 88.995 0 69.809-56.591 126.4-126.4 126.4s-126.4-56.591-126.4-126.4c0-34.714 13.994-66.16 36.649-89.004l-0.009 0.009c-60.485-32.778-100.883-95.755-100.94-168.172v-0.008c0-16.569 13.431-30 30-30v0h964c16.569 0 30 13.431 30 30v0c-0.054 72.416-40.434 135.389-99.895 167.681l-1.005 0.499zM254.94 486.52h66.4v-130.66c11.37-11.184 21.302-23.776 29.526-37.507l0.474-0.853c32.967 55.422 92.55 91.979 160.67 91.979s127.703-36.557 160.198-91.123l0.472-0.856c8.699 14.584 18.63 27.175 29.974 38.335l0.026 0.025v130.66h66.4c16.569 0 30 13.431 30 30s-13.431 30-30 30v0h-514.14c-16.569 0-30-13.431-30-30s13.431-30 30-30v0z" />
<glyph unicode="&#xe91a;" glyph-name="envelope" d="M521.309 299.055l-129.396 112.64-372.364-315.578c13.204-12.736 31.199-20.583 51.027-20.583 1.371 0 2.732 0.037 4.084 0.111l-0.188-0.008h892.742c0.083 0 0.181-0.001 0.279-0.001 19.776 0 37.728 7.806 50.945 20.504l-0.025-0.023-366.778 315.578zM1018.415 799.884c-13.056 12.671-30.889 20.483-50.547 20.483-0.23 0-0.459-0.001-0.688-0.003h-892.707c-19.86-0.026-37.895-7.821-51.231-20.509l0.031 0.029 498.036-426.356zM0 755.2v-619.055l360.262 306.269zM682.356 442.415l360.262-306.269v619.055z" />
<glyph unicode="&#xe91b;" glyph-name="folder" d="M981.333 499.2h-59.733v123.947c0 0 0 0 0 0 0 25.803-20.917 46.72-46.72 46.72-0.075 0-0.15 0-0.225-0.001h-21.321v290.133h-682.667v-34.133h-51.2v-34.133h-51.2v-102.4h-21.333c-0.063 0-0.138 0-0.213 0-25.803 0-46.72-20.917-46.72-46.72 0 0 0 0 0-0.001v0-771.84c1.433-6.682 4.181-12.561 7.976-17.608l-0.082 0.114c7.867-10.412 20.224-17.071 34.137-17.071 0.224 0 0.447 0.002 0.67 0.005h764.979c0.488-0.020 1.061-0.031 1.636-0.031 19.396 0 35.77 12.943 40.955 30.663l0.076 0.302 173.653 478.293v2.56c0.174 1.496 0.273 3.23 0.273 4.987 0 24.259-18.921 44.099-42.811 45.566l-0.129 0.006zM307.2 874.667h170.667c9.426 0 17.067-7.641 17.067-17.067s-7.641-17.067-17.067-17.067h-170.667c-9.426 0-17.067 7.641-17.067 17.067s7.641 17.067 17.067 17.067v0zM307.2 755.2h409.6c9.426 0 17.067-7.641 17.067-17.067s-7.641-17.067-17.067-17.067h-409.6c-9.426 0-17.067 7.641-17.067 17.067s7.641 17.067 17.067 17.067v0zM307.2 635.733h409.6c9.426 0 17.067-7.641 17.067-17.067s-7.641-17.067-17.067-17.067h-409.6c-9.426 0-17.067 7.641-17.067 17.067s7.641 17.067 17.067 17.067v0zM34.133 81.067v661.333c-0.001 0.064-0.002 0.14-0.002 0.215 0 6.834 5.54 12.373 12.373 12.373 0.076 0 0.151-0.001 0.227-0.002h21.322v-580.693zM102.4 857.6h17.067v-542.933l-17.067-46.933zM887.467 499.2h-670.293c-0.488 0.020-1.061 0.031-1.636 0.031-19.396 0-35.77-12.943-40.955-30.663l-0.076-0.302-21.333-59.947v483.413h17.493v-375.467h682.667v119.467h21.333c6.951 0 12.587-5.635 12.587-12.587v0z" />
<glyph unicode="&#xe91c;" glyph-name="openbook" d="M994.384 858.504v-692.003l-482.133-232.709v692.003l126.344 60.988v-215.341l-23.542-12.198v-136.684l48.088 54.312 48.038-4.568v136.684l-23.542-12.198v213.635l306.748 148.078zM817.744 812.524l-130.108-62.795v115.1h-49.042v-138.792l-126.344-60.988-305.493 147.476 305.493 147.476 305.493-147.476zM711.178 508.988v-136.684l-48.038 4.568-48.088-54.312v136.684l23.542 12.198v-10.842l49.042 24.094v12.097l23.542 12.198zM687.636 496.791v-12.097l-49.042-24.094v10.842l49.042 25.349zM687.636 710.425v-213.635l-49.042-25.349v215.341l49.042 23.642zM687.636 749.729v-39.304l-49.042-23.642v39.253l49.042 23.693zM687.636 864.828v-115.1l-49.042-23.693v138.792h49.042zM512.251 625.795v-692.003l-482.133 232.709v692.003l220.662-106.516v-324.417l92.913 12.449 92.963-115.903v338.171l75.595-36.493zM436.656 662.287v-338.171l-92.963 115.903-92.913-12.449v324.417l185.876-89.7zM436.656 662.337v-0.050l-185.876 89.801 185.876-89.751z" />
<glyph unicode="&#xe91d;" glyph-name="reloadhat" horiz-adv-x="942" d="M201.257 745.842c146.384 132.279 365.186 134.343 513.634 13.589l-117.486-4.472c-15.137-0.344-27.178-12.729-26.834-27.866s12.729-27.178 27.866-26.834h1.032l180.443 6.709c14.621 0.516 26.318 12.557 26.318 27.35v3.268l-6.709 178.551c-1.204 14.965-14.277 26.318-29.414 25.114-14.105-1.204-25.114-12.901-25.114-27.178l4.3-111.981c-73.45 60.033-163.929 94.952-260.601 99.768-248.044 12.385-458.934-178.379-471.319-426.251-2.236-43.176 1.892-86.523 12.213-128.667 2.924-12.213 13.933-20.814 26.49-20.814 2.236 0 4.3 0.172 6.537 0.86 14.621 3.612 23.566 18.406 20.126 33.027-34.403 140.536 11.181 288.64 118.518 385.828zM910.127 546.65c-3.612 14.621-18.406 23.566-33.027 19.954s-23.566-18.406-19.954-33.027c51.26-211.921-78.782-425.219-290.704-476.651-121.098-29.414-248.904 0.172-344.888 79.815l119.034 10.665c14.965 1.548 25.802 15.137 24.254 30.102-1.548 14.621-14.621 25.458-29.242 24.254l-180.099-15.825c-14.965-1.376-25.974-14.621-24.77-29.586 0 0 0-0.172 0-0.172l16.169-179.927c1.204-14.105 13.073-24.77 27.178-24.942 0.86 0 1.72 0 2.408 0.172 14.965 1.376 25.974 14.621 24.598 29.586 0 0 0 0 0 0l-9.633 109.401c73.794-59.689 164.79-94.436 259.569-98.908 7.741-0.344 15.481-0.516 22.878-0.516 248.216 0.344 449.129 201.773 448.785 449.989 0 35.779-4.128 71.042-12.557 105.617v0zM245.98 477.672c0 0-12.557-115.077-12.557-116.454-0.688-8.773 6.709-15.137 15.137-15.137 0 0 1.548 0 2.236 0.172 12.041 1.72 24.082 2.58 36.123 2.58 72.246 0 136.751-30.619 160.661-76.202 2.58-4.988 7.741-8.085 13.417-8.085h4.644c5.676 0 10.665 3.096 13.245 8.085 23.91 45.584 88.587 76.202 160.833 76.202 12.041 0 24.082-0.86 36.123-2.58 8.257-1.204 15.825 4.472 17.201 12.729 0.172 1.376 0.172 2.752 0 4.128l-12.385 113.357-217.254-81.707-217.426 82.911zM189.216 562.991c-7.741-2.924-11.697-11.525-8.773-19.266 1.548-4.128 4.816-7.225 8.773-8.773l268.686-101.316c3.44-1.376 7.225-1.376 10.665 0l245.292 92.372v-160.489h33.715v183.023c0 6.193-3.956 11.869-9.633 14.105l-269.374 101.488c-3.44 1.376-7.225 1.376-10.665 0l-268.686-101.144zM753.938 339.373h-46.272l-9.805-93.404c-0.86-8.257 5.16-15.653 13.417-16.513 0.516 0 1.032-0.172 1.548 0h35.951c8.257 0 14.965 6.709 14.965 14.965 0 0.516 0 1.032 0 1.548l-9.805 93.404z" />
<glyph unicode="&#xe91e;" glyph-name="charity" d="M702.98 759.74c-20.541 19.256-48.249 31.084-78.719 31.084-0.317 0-0.633-0.001-0.949-0.004h0.049c-34.943-0.092-66.554-14.283-89.46-37.18l-10.48-10.48-10.48 10.48c-22.91 22.888-54.52 37.071-89.443 37.16h-0.017c-0.268 0.002-0.584 0.004-0.901 0.004-30.47 0-58.178-11.828-78.782-31.142l0.063 0.058c-23.080-21.742-37.451-52.508-37.451-86.63 0-32.839 13.311-62.569 34.831-84.090l182.2-182.18 182.18 182.18c21.521 21.52 34.832 51.251 34.832 84.090 0 34.132-14.38 64.906-37.412 86.594l-0.060 0.056zM355.62 424.88c-16.5 5-31.3 18.12-45.060 31.88-25 26-51.72 61.62-86.32 61.18v0.14c-12.721-0.147-24.168-5.482-32.346-13.985l-0.014-0.015c-22.96-22.96-13.68-58 6.12-77.82l64.26-64.26c5.792-5.791 9.375-13.792 9.375-22.63s-3.583-16.839-9.375-22.63v0l-86.92 86.88c-14.676 14.703-24.809 33.946-28.109 55.441l-0.071 0.559c-3.48 25.54 4.34 49.34 22 67.040 12.245 12.407 28.637 20.695 46.925 22.612l0.335 0.028-12.98 52.44c-0.98 194.62-96 170.84-96 125.060v-341.64c0-0.061 0-0.133 0-0.205 0-21.899 8.848-41.732 23.163-56.118l-0.003 0.003c158.96-160.44 136.84-108.76 136.84-242h192l-0.14 180.52c0.12 87.16-44.54 138.28-103.68 157.52zM939.28 726.82c0 45.78-94.94 69.56-96-125.060l-12.98-52.44c18.623-1.945 35.015-10.233 47.252-22.632l0.008-0.008c17.7-17.7 25.54-41.52 22-67.040-3.371-22.053-13.504-41.297-28.181-56.001l-86.919-86.919c-5.792 5.791-9.375 13.792-9.375 22.63s3.583 16.839 9.375 22.63l64.3 64.3c19.8 19.8 29.080 54.86 6.12 77.82-8.192 8.518-19.639 13.853-32.333 14h-0.027v-0.14c-34.6 0.44-61.32-35.16-86.32-61.18-13.76-13.76-28.54-26.88-45.060-31.88-59.14-19.24-103.8-70.36-103.8-157.54l-0.14-180.52h192c0 133.28-22.12 81.6 136.84 242 14.313 14.386 23.16 34.221 23.16 56.123 0 0.069 0 0.139 0 0.208v-0.011z" />
<glyph unicode="&#xe91f;" glyph-name="arrowrightsteps" d="M1017.856 485.376l-307.2 307.2c-8.691 8.659-20.68 14.013-33.92 14.013-26.543 0-48.061-21.518-48.061-48.061 0-13.303 5.405-25.344 14.139-34.047l225.281-225.281h-819.2c-26.51 0-48-21.49-48-48s21.49-48 48-48h819.2l-225.024-225.28c-8.681-8.681-14.050-20.673-14.050-33.92 0-26.493 21.477-47.97 47.97-47.97 13.247 0 25.239 5.369 33.92 14.050l307.2 307.2c8.705 8.67 14.091 20.666 14.091 33.92s-5.386 25.25-14.089 33.918l-0.002 0.002z" />
<glyph unicode="&#xe920;" glyph-name="book-cover" d="M608.444 727.468c15.402 7.272 31.054 13.688 46.937 19.853 16.363 6.269 33.228 11.348 50.155 16.259s34.252 9.3 51.597 12.852 34.67 6.708 52.245 9.55 34.503 4.618 51.764 6.729c16.99 1.358 33.98 3.135 50.991 3.803 13.521 0.522 27.042 1.128 40.563 1.693 13.244 0.29 23.87 11.096 23.87 24.382 0 10.322-6.412 19.146-15.47 22.706l-0.166 0.057c-9.279 3.553-20.417 0-29.78-1.505-15.088-2.466-30.135-4.932-45.119-7.941 0.857 0.188 1.191 0.251-0.272 0l-0.982-0.209c-16.718-3.406-33.207-6.917-49.716-10.971-17.199-4.18-34.21-8.986-51.221-13.918-39.576-11.81-72.437-24.234-104.212-38.633l5.135 2.082c-25.75-11.62-46.59-22.52-66.777-34.412l3.247 1.769c-9.801-5.559-19.184-11.975-28.505-18.307-7.639-5.151-14.248-10.234-20.53-15.685l0.259 0.22 1.546 0.585c9.794 6.51 21.135 12.88 32.946 18.411l1.64 0.69zM572.207 735.159c13.814 10.449 27.92 20.125 42.506 29.383 21.98 13.916 47.921 28.002 74.789 40.426l4.31 1.788c32.12 15.026 65.891 26.122 99.746 36.383 29.257 8.861 59.183 14.482 89.046 20.355 11.593 2.116 20.284 12.085 20.396 24.104v0.012c-0.162 13.144-10.592 23.799-23.629 24.324l-0.048 0.002c-4.364-0.095-8.495-0.984-12.289-2.528l0.231 0.083-19.665-6.457c-16.112-5.287-31.911-11.201-47.773-17.262-37.889-14.824-69.676-30.267-100.074-47.845l3.504 1.87c-28.491-15.938-52.669-31.793-75.672-49.126l1.672 1.207c-19.893-14.757-37.402-29.449-53.998-45.098l0.291 0.271c-8.067-7.774-16.091-15.59-23.594-23.907-6.151-6.399-11.868-13.33-17.036-20.675l-0.372-0.557c0.961 1.128 1.923 2.236 2.968 3.281 10.479 10.787 21.8 20.63 33.9 29.467l0.749 0.521zM417.311 732.212c-14.629 9.216-29.592 17.575-44.805 25.725s-31.577 15.36-47.689 22.194-32.434 13.375-49.027 18.913c-16.948 5.642-33.876 11.097-51.033 16.071-16.718 4.848-33.688 8.944-50.615 13.124-31.514 7.649-63.697 12.643-95.671 17.826-5.663 0.92-11.097 1.317-16.551-0.94-8.939-3.751-15.104-12.431-15.104-22.552 0-13.092 10.316-23.775 23.264-24.362l0.053-0.002 36.070-1.484c16.906-0.731 33.813-2.257 50.531-3.615 17.387-1.379 34.983-3.532 52.245-6.269s34.544-5.747 51.743-9.258c39.9-8.079 74.166-17.888 107.302-30.041l-5.048 1.62c15.966-5.789 31.514-12.392 46.958-19.414 15.384-7.033 28.296-14.158 40.622-22.113l-1.25 0.756 1.567-0.585c-9.886 8.502-20.806 16.522-32.319 23.678l-1.118 0.647zM139.828 863.64c28.108-5.517 56.299-10.825 83.884-18.704 40.055-11.568 73.179-23.662 105.277-37.669l-5.511 2.143c16.321-6.938 32.12-15.13 47.815-23.322 10.742-5.601 21.4-11.577 31.64-18.035 28.15-17.742 55.798-36.739 79.768-59.977 2.090-1.985 4.033-4.012 5.872-6.269-7.858 12.079-18.495 22.57-28.463 32.893-11.898 12.252-24.363 23.737-37.441 34.505l-0.781 0.624c-20.656 17.25-43.551 34.016-67.484 49.3l-2.691 1.607c-26.784 17.221-58.055 34.252-90.549 49.066l-4.767 1.946c-16.238 7.21-32.58 13.814-49.173 20.167-14.963 5.747-30.156 10.616-45.369 15.611-5.517 1.797-11.389 4.409-17.241 4.409-8.327-0.016-15.68-4.17-20.114-10.516l-0.053-0.080c-2.545-3.813-4.061-8.502-4.061-13.544 0-11.77 8.26-21.611 19.299-24.042l0.163-0.030zM999.675 757.833c-10.136 0.355-20.626 0.543-31.18 0.543-129.128 0-260.472-26.29-344.231-47.062v-703.697c82.087 34.962 226.283 88.754 378.232 111.929 11.769 1.84 20.668 11.905 20.668 24.049 0 0.002 0 0.003 0 0.005v0 589.928c-0.004 13.138-10.422 23.841-23.447 24.303l-0.042 0.001zM583.367 709.371c-26.081-11.745-48.901-17.199-71.784-17.199s-45.704 5.454-71.805 17.199l-4.681 2.215c0-128.439 0-334.367 0-470.204v-233.765c0.982-3.657 18.411-22.131 76.487-22.131s75.483 18.474 76.487 22.131v703.969zM23.468 757.833c-13.059-0.475-23.465-11.174-23.468-24.304v0-589.928c0.007-12.142 8.901-22.205 20.53-24.036l0.138-0.018c152.033-23.176 296.040-77.051 378.253-111.929v219.22c0 156.296 0 336.332 0 484.436-83.78 20.814-215.124 47.104-344.252 47.104-10.449 0-21.044-0.188-31.18-0.543z" />
<glyph unicode="&#xe921;" glyph-name="calendar2" d="M373.197 395.752c0 12.815-10.389 23.204-23.204 23.204v0h-81.134c-12.815 0-23.204-10.389-23.204-23.204v0-80.977c0-12.815 10.389-23.204 23.204-23.204v0h81.003c12.815 0 23.204 10.389 23.204 23.204v0zM575.535 395.752c0 12.815-10.389 23.204-23.204 23.204v0h-81.030c-12.815 0-23.204-10.389-23.204-23.204v-80.977c0-12.815 10.389-23.204 23.204-23.204v0h81.030c12.815 0 23.204 10.389 23.204 23.204v0zM778.004 395.752c0 12.815-10.389 23.204-23.204 23.204v0h-81.030c-12.815 0-23.204-10.389-23.204-23.204v-80.977c0-12.815 10.389-23.204 23.204-23.204v0h81.003c12.815 0 23.204 10.389 23.204 23.204v0zM373.197 193.283c0 12.815-10.389 23.204-23.204 23.204v0h-81.134c-12.815 0-23.204-10.389-23.204-23.204v0-80.977c0-12.815 10.389-23.204 23.204-23.204v0h81.003c12.815 0 23.204 10.389 23.204 23.204v0zM575.535 193.283c0 12.815-10.389 23.204-23.204 23.204v0h-81.030c-12.815 0-23.204-10.389-23.204-23.204v0-80.977c0-12.815 10.389-23.204 23.204-23.204v0h81.030c12.815 0 23.204 10.389 23.204 23.204v0zM778.004 193.283c0 12.815-10.389 23.204-23.204 23.204v0h-81.030c-12.815 0-23.204-10.389-23.204-23.204v0-80.977c0-12.815 10.389-23.204 23.204-23.204v0h81.030c12.815 0 23.204 10.389 23.204 23.204v0zM922.857 846.129v-123.718c-0.045-55.783-45.276-100.986-101.064-100.986-0.074 0-0.147 0-0.221 0h-63.891c-0.094 0-0.205 0-0.316 0-55.889 0-101.234 45.143-101.56 100.955v124.194h-287.846v-124.163c-0.327-55.843-45.672-100.986-101.56-100.986-0.111 0-0.222 0-0.333 0.001h-63.99c-0.062 0-0.136 0-0.21 0-55.783 0-101.008 45.207-101.038 100.983v123.721c-49.403-1.681-88.838-42.033-89.043-91.642v-725.017c0-0.024 0-0.052 0-0.080 0-50.718 40.981-91.865 91.637-92.132h816.763c50.685 0.327 91.649 41.484 91.662 92.211v725.051c-0.205 49.629-39.641 89.981-88.89 91.658l-0.154 0.004zM893.158 74.62c0-21.884-17.74-39.624-39.624-39.624v0h-685.19c-21.878 0.015-39.609 17.746-39.624 39.623v374.507c0 21.889 17.737 39.636 39.623 39.651h685.191c21.887-0.015 39.624-17.761 39.624-39.651v0zM201.841 687.632h63.195c0.039 0 0.085 0 0.131 0 19.165 0 34.701 15.536 34.701 34.701 0 0.046 0 0.092 0 0.138v-0.007 202.81c0 0 0 0 0 0 0 19.179-15.548 34.727-34.727 34.727-0.037 0-0.074 0-0.11 0h-63.189c-19.179 0-34.727-15.548-34.727-34.727v0-202.81c0-0.039 0-0.085 0-0.131 0-19.165 15.536-34.701 34.701-34.701 0.009 0 0.019 0 0.028 0h-0.001zM756.87 687.632h63.195c0.008 0 0.017 0 0.026 0 19.165 0 34.701 15.536 34.701 34.701 0 0.046 0 0.092 0 0.138v-0.007 202.81c0 19.179-15.548 34.727-34.727 34.727v0h-63.195c-19.179 0-34.727-15.548-34.727-34.727v-202.81c0-0.039 0-0.085 0-0.131 0-19.165 15.536-34.701 34.701-34.701 0.009 0 0.019 0 0.028 0h-0.001z" />
<glyph unicode="&#xe922;" glyph-name="coin-stack" d="M297.758 374.438c0.197 0 0.429 0 0.662 0 29.010 0 57.568 1.936 85.551 5.686l-3.272-0.359v288.762c-24.756 3.391-53.365 5.328-82.426 5.328-0.181 0-0.362 0-0.543 0h0.029c-164.446 0-297.758-60.483-297.758-134.938v-29.284c0-74.583 133.311-135.066 297.758-135.066zM297.758 223.645c0.197 0 0.429 0 0.662 0 29.010 0 57.568 1.936 85.551 5.686l-3.272-0.359v84.632c-24.785-3.412-53.426-5.359-82.522-5.359-0.147 0-0.294 0-0.442 0h0.023c-143.551 0-263.369 46.064-291.505 107.376-3.94-8.090-6.283-17.589-6.38-27.625v-29.317c0-74.583 133.311-135.066 297.758-135.066zM380.762 156.112v6.603c-24.785-3.412-53.426-5.359-82.522-5.359-0.147 0-0.294 0-0.442 0h0.023c-143.551 0-263.369 46.064-291.505 107.376-3.938-8.091-6.281-17.589-6.38-27.624v-29.318c0-74.583 133.311-135.066 297.758-135.066 0.276 0 0.602-0.001 0.929-0.001 32.88 0 65.175 2.505 96.704 7.336l-3.527-0.444c-6.993 13.762-11.103 30.004-11.133 47.203v0.010zM727.136 902.579c-164.446 0-297.789-60.611-297.789-135.066v-29.284c0-74.583 133.311-135.066 297.789-135.066s297.758 60.611 297.758 135.066v29.284c0 74.455-133.311 135.066-297.758 135.066zM727.136 537.002c-143.551 0-263.369 46.064-291.505 107.376-3.941-8.090-6.284-17.589-6.38-27.625v-29.317c0-74.583 133.311-135.066 297.789-135.066s297.758 60.611 297.758 135.066v29.316c-0.094 10.069-2.438 19.568-6.551 28.049l0.171-0.391c-28.136-61.312-147.954-107.376-291.505-107.376zM727.136 386.241c-143.551 0-263.369 46.064-291.505 107.376-3.938-8.091-6.281-17.589-6.38-27.624v-29.318c0-74.583 133.311-135.066 297.789-135.066s297.758 60.611 297.758 135.066v29.284c-0.097 10.069-2.44 19.567-6.551 28.049l0.171-0.392c-28.136-61.312-147.954-107.376-291.505-107.376zM727.136 227.314c-143.551 0-263.369 46.064-291.505 107.408-3.938-8.091-6.281-17.589-6.38-27.624v-29.318c0-74.583 133.311-135.066 297.789-135.066s297.758 60.611 297.758 135.066v29.284c-0.098 10.069-2.441 19.567-6.551 28.050l0.171-0.392c-28.136-61.312-147.954-107.408-291.505-107.408zM727.136 76.361c-143.551 0-263.369 46.064-291.505 107.376-3.938-8.091-6.281-17.589-6.38-27.624v-29.318c0-74.583 133.311-135.066 297.789-135.066s297.758 60.611 297.758 135.066v29.316c-0.096 10.069-2.439 19.567-6.551 28.049l0.171-0.392c-27.913-61.185-147.73-107.408-291.282-107.408z" />
<glyph unicode="&#xe923;" glyph-name="home" d="M507.556 690.669l-362.071-298.506c-0.092-0.788-0.296-1.506-0.598-2.171l0.018 0.045c-0.031-0.29-0.048-0.626-0.048-0.966s0.018-0.676 0.052-1.007l-0.003 0.041v-301.887c0.373-22.096 18.187-39.91 40.248-40.283h241.544v241.509h161.522v-241.509h241.509c22.096 0.373 39.91 18.187 40.283 40.248v302.212c0.005 0.11 0.008 0.239 0.008 0.368 0 1.227-0.251 2.396-0.706 3.457l0.022-0.057zM1008.060 460.172l-137.854 114.572v256.966c0.010 0.235 0.016 0.511 0.016 0.789 0 10.671-8.65 19.321-19.321 19.321-0.277 0-0.554-0.006-0.828-0.017l0.039 0.001h-120.948c-0.235 0.010-0.511 0.016-0.789 0.016-10.671 0-19.321-8.65-19.321-19.321 0-0.277 0.006-0.554 0.017-0.828l-0.001 0.039v-122.88l-153.6 128.483c-13.074 10.227-29.75 16.4-47.867 16.4s-34.793-6.173-48.039-16.529l0.172 0.13-452.782-377.141c-4.051-3.205-6.698-8.032-6.954-13.484l-0.002-0.041c-0.061-0.595-0.096-1.286-0.096-1.985 0-4.899 1.712-9.398 4.57-12.931l-0.030 0.039 38.642-46.563c3.346-3.721 7.944-6.257 13.126-6.944l0.109-0.012c0.418-0.027 0.906-0.042 1.397-0.042 5.177 0 9.961 1.683 13.835 4.531l-0.065-0.046 435.683 363.327 436.069-363.23c3.322-2.777 7.64-4.464 12.352-4.464 0.311 0 0.619 0.007 0.926 0.022l-0.043-0.002h1.932c5.289 0.707 9.884 3.241 13.218 6.936l0.017 0.019 38.642 46.563c2.774 3.452 4.452 7.888 4.452 12.715 0 0.727-0.038 1.446-0.112 2.154l0.008-0.088c-0.257 5.493-2.904 10.319-6.917 13.495l-0.038 0.029z" />
<glyph unicode="&#xe924;" glyph-name="hourglass" d="M801.668 779.745h57.003c13.71 0 24.824 11.114 24.824 24.824v0 130.607c0 13.71-11.114 24.824-24.824 24.824v0h-692.658c-13.71 0-24.824-11.114-24.824-24.824v0-130.607c0-13.71 11.114-24.824 24.824-24.824v0h57.003c23.024-154.003 94.829-278.59 188.509-331.528-93.68-52.969-165.516-177.493-188.509-331.528h-57.003c-13.71 0-24.824-11.114-24.824-24.824v0-130.607c0-13.71 11.114-24.824 24.824-24.824v0h692.658c13.71 0 24.824 11.114 24.824 24.824v0 130.607c0 13.71-11.114 24.824-24.824 24.824v0h-57.003c-22.993 154.003-94.829 278.59-188.509 331.528 93.68 52.907 165.516 177.493 188.509 331.528zM555.97 357.019c90.888-115.712 124.556-171.691 136.751-198.315 1.431-3.041 2.267-6.605 2.267-10.364 0-13.71-11.114-24.824-24.824-24.824-0.001 0-0.001 0-0.002 0h-315.64c-0.001 0-0.001 0-0.002 0-13.71 0-24.824 11.114-24.824 24.824 0 3.759 0.836 7.323 2.331 10.516l-0.064-0.152c12.195 26.624 45.863 82.634 136.751 198.315l2.669 3.382v151.676l-3.351 3.568c-50.455 54.086-89.088 97.249-114.812 128.31-3.544 4.261-5.696 9.79-5.696 15.822 0 13.71 11.114 24.824 24.824 24.824 3.959 0 7.701-0.927 11.022-2.575l-0.145 0.065c34.133-16.725 84.092-36.647 129.024-36.647s95.17 19.766 128.9 36.368c3.192 1.602 6.956 2.54 10.939 2.54 13.71 0 24.824-11.114 24.824-24.824 0-6.031-2.151-11.56-5.727-15.862l0.033 0.040c-25.724-31.030-64.264-74.162-114.595-128.062l-3.32-3.568v-151.707z" />
<glyph unicode="&#xe925;" glyph-name="info" d="M512-64c-282.331 0-512 229.669-512 512s229.669 512 512 512 512-229.669 512-512-229.669-512-512-512zM512 830.433c-210.86 0-382.433-171.572-382.433-382.433s171.572-382.433 382.433-382.433 382.433 171.572 382.433 382.433-171.572 382.433-382.433 382.433zM565.081 627.304c0-33.586-27.227-60.813-60.813-60.813s-60.813 27.227-60.813 60.813c0 33.549 27.167 60.754 60.703 60.813h0.006c33.586 0 60.813-27.227 60.813-60.813v0zM595.801 207.882h-167.602v81.293h30.72v138.449h-30.302v81.189h136.464v-219.638h30.72z" />
<glyph unicode="&#xe926;" glyph-name="openbook2" d="M156.354 839.529v0c-0.075 0.001-0.164 0.001-0.253 0.001-9.99 0-19.031-4.063-25.561-10.627l-0.002-0.002c-6.636-6.595-10.746-15.724-10.756-25.813v-548.703c0.073-20.183 16.428-36.523 36.61-36.571h0.005c85.147 0 227.818-17.942 326.217-120.944v574.085c0.002 0.128 0.003 0.279 0.003 0.43 0 6.678-1.873 12.918-5.124 18.223l0.087-0.153c-80.629 130.108-235.864 150.072-321.226 150.072zM902.368 254.387v548.571c-0.010 10.091-4.121 19.221-10.754 25.813l-0.002 0.002c-6.525 6.565-15.56 10.628-25.545 10.628-0.095 0-0.19 0-0.285-0.001h0.015c-85.319 0-240.554-19.964-321.312-150.072-3.163-5.157-5.036-11.401-5.036-18.083 0-0.147 0.001-0.294 0.003-0.441v0.022-573.913c98.399 102.959 240.941 120.729 326.217 120.901 20.177 0.073 36.517 16.398 36.614 36.562v0.009zM985.708 713.035h-26.504v-458.649c-0.122-51.485-41.801-93.194-93.262-93.365h-0.016c-72.239 0-191.29-14.284-275.663-94.139 145.855 35.711 299.628 12.52 387.227-7.486 2.469-0.594 5.304-0.935 8.218-0.935 20.198 0 36.571 16.374 36.571 36.571 0 0.057 0 0.113 0 0.17v-0.009 581.271c-0.024 20.188-16.383 36.547-36.569 36.571h-0.002zM63.075 254.387v458.649h-26.504c-20.188-0.024-36.547-16.383-36.571-36.569v-581.273c0-0.006 0-0.014 0-0.022 0-20.198 16.374-36.571 36.571-36.571 2.899 0 5.719 0.337 8.423 0.975l-0.248-0.049c87.642 19.964 241.414 43.025 387.227 7.486-84.286 79.812-203.38 93.881-275.576 94.010-51.496 0.146-93.2 41.865-93.322 93.353v0.012z" />
<glyph unicode="&#xe927;" glyph-name="publish" d="M779.020 785.16c0 0.069 0 0.151 0 0.233 0 24.78-10.077 47.206-26.357 63.403l-84.844 84.844c-16.531 16.243-39.195 26.292-64.207 26.36h-5.173v-180h180.58v5.16zM700.22 188.96l-95.4-31.84-14.54-0.8c-41.406 0.021-74.963 33.592-74.963 75 0 8.523 1.422 16.713 4.040 24.348l-0.157-0.528 28.66 85.78c6.215 18.331 16.087 34.005 28.826 46.826l-0.006-0.006 203.14 202.26v130h-210.8c-16.58 0-29.020 13.42-29.020 30v210h-450c-49.706 0-90-40.294-90-90v0-844c0-49.706 40.294-90 90-90v0h599.020c49.62 0 90.8 40.38 90.8 90v224l-32.96-32.16c-12.743-12.768-28.361-22.663-45.8-28.63l-0.84-0.25zM150 660h419.020c16.569 0 30-13.431 30-30s-13.431-30-30-30v0h-419.020c-16.569 0-30 13.431-30 30s13.431 30 30 30v0zM150 540h299.020c16.569 0 30-13.431 30-30s-13.431-30-30-30v0h-299.020c-16.569 0-30 13.431-30 30s13.431 30 30 30v0zM150 420h299.020c16.569 0 30-13.431 30-30s-13.431-30-30-30v0h-299.020c-16.569 0-30 13.431-30 30s13.431 30 30 30v0zM120 270c0 16.569 13.431 30 30 30v0h299.020c16.569 0 30-13.431 30-30s-13.431-30-30-30v0h-299.020c-16.569 0-30 13.431-30 30v0zM569.020 60h-180c-16.569 0-30 13.431-30 30s13.431 30 30 30v0h180c16.569 0 30-13.431 30-30s-13.431-30-30-30v0zM595.1 217.12l78.26 26.14-71.14 71.14-26-78.3c-0.482-1.408-0.761-3.029-0.761-4.716 0-8.284 6.716-15 15-15 1.659 0 3.255 0.269 4.746 0.766l-0.106-0.031zM637.64 363.8l85.22-85.22 197.56 197.58-85.2 85.2zM1006.36 647.44c-10.54 10.6-26 16.68-42.54 16.68-0.293 0.005-0.639 0.008-0.985 0.008-16.157 0-30.826-6.367-41.637-16.728l0.021 0.020-43.6-43.6 85.2-85.2 43.6 43.6c10.858 10.915 17.57 25.964 17.57 42.58 0 16.646-6.736 31.719-17.631 42.641l0.001-0.001zM1006.42 562.2v0z" />
<glyph unicode="&#xe928;" glyph-name="youtube" d="M984.072 747.726c-36.955 43.933-105.208 61.935-235.355 61.935h-473.27c-133.326-0.083-202.735-18.952-239.566-65.941-35.881-45.585-35.881-112.805-35.881-205.832v-177.259c0-180.191 42.612-271.855 275.448-271.855h473.105c113.053 0 175.649 15.814 216.196 54.586 41.538 39.763 59.252 104.712 59.252 217.105v177.425c0 98.106-2.766 165.698-39.928 209.837zM657.425 424.795l-214.71-112.268c-4.443-2.373-9.718-3.767-15.319-3.767-18.243 0-33.032 14.789-33.032 33.032 0 0.003 0 0.007 0 0.010v0 223.835c0 0.002 0 0.005 0 0.008 0 18.243 14.789 33.032 33.032 33.032 5.568 0 10.814-1.378 15.416-3.81l-0.18 0.087 214.71-111.484c10.643-5.629 17.771-16.63 17.771-29.295s-7.128-23.666-17.592-29.209l-0.179-0.087z" />
<glyph unicode="&#xe929;" glyph-name="man-user" d="M511.927 459.191c113.847 0 206.153 112.091 206.153 250.405s-30.281 250.405-206.153 250.405-206.153-112.128-206.153-250.405 92.306-250.405 206.153-250.405zM900.864 86.967c-3.657 240.896-35.291 309.577-276.041 353.024 0 0-33.902-43.191-112.896-43.191s-112.896 43.191-112.896 43.191c-238.117-42.971-271.506-110.629-275.895-345.198-0.366-19.163-0.512-20.151-0.585-17.92 0-4.169 0-11.886 0-25.307 0 0 57.307-115.566 389.339-115.566s389.339 115.566 389.339 115.566c0 8.631 0 14.629 0 18.725-0.31 3.802-0.487 8.231-0.487 12.702 0 1.411 0.018 2.817 0.053 4.219l-0.004-0.208z" />
<glyph unicode="&#xe92a;" glyph-name="passage-of-time" d="M1011.335 523.992c-3.505 7.23-10.789 12.127-19.216 12.127-0.065 0-0.131 0-0.196-0.001h-63.047c-42.248 218.635-232.104 381.502-460 381.502-258.511 0-468.076-209.565-468.076-468.076s209.565-468.076 468.076-468.076c172.862 0 323.839 93.705 404.905 233.090l1.2 2.234c4.436 6.614 7.080 14.753 7.080 23.51 0 23.515-19.062 42.577-42.577 42.577-16.564 0-30.918-9.458-37.957-23.269l-0.112-0.241c-67.471-115.979-191.177-192.704-332.803-192.704-211.929 0-383.731 171.802-383.731 383.731s171.802 383.731 383.731 383.731c181.532 0 333.623-126.054 373.516-295.406l0.517-2.601h-63.596c-0.018 0-0.039 0-0.060 0-8.532 0-15.891-5.019-19.287-12.265l-0.055-0.13c-1.285-2.641-2.037-5.746-2.037-9.026 0-5.205 1.892-9.968 5.025-13.639l106.418-127.701c3.931-4.659 9.774-7.599 16.303-7.599s12.372 2.939 16.277 7.567l0.026 0.032 107.789 127.731c3.081 3.667 4.953 8.441 4.953 13.651 0 3.261-0.733 6.351-2.044 9.114l0.055-0.129zM468.345 813.137c-23.515 0-42.577-19.062-42.577-42.577v0-258.425c-18.828-13.667-30.93-35.603-30.93-60.367 0-40.771 32.806-73.88 73.461-74.369h0.046c11.385 0.084 22.126 2.76 31.688 7.466l-0.429-0.191 147.133-86.232c6.041-3.558 13.308-5.66 21.067-5.66 0.078 0 0.156 0 0.234 0.001h-0.012c0.023 0 0.051 0 0.079 0 23.515 0 42.577 19.062 42.577 42.577 0 15.708-8.507 29.43-21.165 36.809l-0.202 0.109-148.211 85.693c-2.153 22.347-13.906 41.577-31.029 53.74l-0.23 0.155v258.695c0 23.515-19.062 42.577-42.577 42.577v0zM468.345 419.166c-17.71 0-32.067 14.357-32.067 32.067s14.357 32.067 32.067 32.067c17.71 0 32.067-14.357 32.067-32.067v0c0-17.71-14.357-32.067-32.067-32.067v0z" />
<glyph unicode="&#xe92b;" glyph-name="sertificate" d="M704 960v-256h256l-256 256zM160 512c-0.092 0-0.201 0-0.311 0-88.156 0-159.62-71.464-159.62-159.62 0-45.637 19.152-86.801 49.858-115.892l0.072-0.068-49.1-196.68c-0.616-2.347-0.97-5.041-0.97-7.818 0-17.673 14.327-32 32-32 5.232 0 10.17 1.256 14.531 3.482l-0.181-0.084 113.72 56.9 113.66-56.9c4.19-2.071 9.119-3.293 14.331-3.32h0.009c0.015 0 0.033 0 0.050 0 17.673 0 32 14.327 32 32 0 2.749-0.347 5.416-0.998 7.962l0.048-0.222-49.1 196.68c30.778 29.159 49.931 70.323 49.931 115.96 0 88.156-71.464 159.62-159.62 159.62-0.109 0-0.218 0-0.328 0h0.017zM160 256c-53.019 0-96 42.981-96 96s42.981 96 96 96c53.019 0 96-42.981 96-96v0c-0.068-52.992-43.008-95.932-95.993-96h-0.007zM640 704v256h-384c-35.323-0.057-63.943-28.677-64-63.995v-323.265c108.28-15.68 192-108.16 192-220.74 0-0.159 0.001-0.346 0.001-0.534 0-49.745-16.443-95.649-44.19-132.574l0.409 0.569 38.78-155.46h517c35.346 0 64 28.654 64 64v0 512h-256c-35.323 0.057-63.943 28.677-64 63.995v0.005zM320 736c0 17.673 14.327 32 32 32v0h192c17.673 0 32-14.327 32-32s-14.327-32-32-32v0h-192c-17.673 0-32 14.327-32 32v0zM800 320h-320c-17.673 0-32 14.327-32 32s14.327 32 32 32v0h320c17.673 0 32-14.327 32-32s-14.327-32-32-32v0zM832 544c0-17.673-14.327-32-32-32v0h-384c-17.673 0-32 14.327-32 32s14.327 32 32 32v0h384c17.673 0 32-14.327 32-32v0z" />
<glyph unicode="&#xe92c;" glyph-name="shopping-list" d="M352 704h320c17.673 0 32 14.327 32 32v0 128c0 17.673-14.327 32-32 32v0h-69.5c-13.561 37.635-48.96 64.058-90.53 64.058s-76.969-26.422-90.319-63.389l-0.211-0.669h-69.44c-17.673 0-32-14.327-32-32v0-128c0-17.673 14.327-32 32-32v0zM832 832h-64v-96c-0.068-52.992-43.008-95.932-95.993-96h-320.007c-52.992 0.068-95.932 43.008-96 95.993v96.007h-64c-35.323-0.057-63.943-28.677-64-63.995v-768.005c-0.002-0.209-0.004-0.456-0.004-0.704 0-34.96 28.34-63.3 63.3-63.3 0.247 0 0.495 0.001 0.741 0.004h639.962c0.209-0.002 0.456-0.004 0.704-0.004 34.96 0 63.3 28.34 63.3 63.3 0 0.247-0.001 0.495-0.004 0.741v-0.038 768c0.002 0.209 0.004 0.456 0.004 0.704 0 34.96-28.34 63.3-63.3 63.3-0.247 0-0.495-0.001-0.741-0.004h0.038zM502.66 265.34l-128-128c-5.81-5.777-13.818-9.347-22.66-9.347s-16.85 3.571-22.661 9.349l-63.999 63.999c-5.792 5.792-9.374 13.792-9.374 22.63 0 17.675 14.329 32.004 32.004 32.004 8.838 0 16.838-3.582 22.63-9.374l41.4-41.36 105.34 105.34c5.796 5.806 13.809 9.398 22.66 9.398 17.683 0 32.018-14.335 32.018-32.018 0-8.832-3.576-16.828-9.358-22.62v0zM502.66 521.34l-128-128c-5.81-5.777-13.818-9.347-22.66-9.347s-16.85 3.571-22.661 9.349l-63.999 63.999c-5.792 5.792-9.374 13.792-9.374 22.63 0 17.675 14.329 32.004 32.004 32.004 8.838 0 16.838-3.582 22.63-9.374l41.4-41.36 105.34 105.34c5.796 5.806 13.809 9.398 22.66 9.398 17.683 0 32.018-14.335 32.018-32.018 0-8.832-3.576-16.828-9.358-22.62v0zM736 192h-128c-17.673 0-32 14.327-32 32s14.327 32 32 32v0h128c17.673 0 32-14.327 32-32s-14.327-32-32-32v0zM736 448h-128c-17.673 0-32 14.327-32 32s14.327 32 32 32v0h128c17.673 0 32-14.327 32-32s-14.327-32-32-32v0z" />
<glyph unicode="&#xe92d;" glyph-name="businessmans" horiz-adv-x="997" d="M994.291 688.827c-0.36 48.861-40.007 88.342-88.896 88.434h-0.009c-5.953 0-204.889 0.166-211.478-0.581 31.975-25.686 52.341-64.692 52.606-108.463v-0.044l1.495-297.31c0.001-0.111 0.001-0.242 0.001-0.373 0-31.65-17.332-59.252-43.022-73.832l-0.42-0.22v-239.277c0.624-24.409 20.56-43.958 45.062-43.958s44.437 19.549 45.060 43.901l0.001 0.058v350.443c-0.018 0.219-0.028 0.475-0.028 0.733 0 5.367 4.351 9.718 9.718 9.718s9.718-4.351 9.718-9.718c0-0.258-0.010-0.514-0.030-0.767l0.002 0.033v-350.47c-0.009-0.333-0.014-0.724-0.014-1.117 0-24.895 20.181-45.075 45.075-45.075s45.075 20.181 45.075 45.075c0 0.393-0.005 0.784-0.015 1.175l0.001-0.058c0 596.060-0.803 254.726-0.831 631.278-0.001 0.037-0.001 0.081-0.001 0.125 0 4.382 3.552 7.933 7.933 7.933 4.338 0 7.862-3.481 7.932-7.802v-0.007l1.384-275.907c0-0.008 0-0.018 0-0.028 0-20.677 16.715-37.45 37.369-37.544h0.203c20.664 0.094 37.379 16.867 37.379 37.544 0 0.068 0 0.137-0.001 0.205v-0.011zM115.402 863.093c0.305-1.357 0.637-2.769 1.024-4.042 3.883-13.688 11.004-25.407 20.503-34.707l0.014-0.013c0.941-0.941 1.938-1.855 2.963-2.769 13.652-12.081 31.71-19.458 51.491-19.458 35.506 0 65.46 23.767 74.823 56.259l0.136 0.55c0.36 1.329 0.72 2.769 0.997 4.042 0.536 2.251 1.023 5.077 1.351 7.951l0.033 0.355c0.298 2.581 0.468 5.575 0.471 8.608v0.003c0 0.033 0 0.073 0 0.112 0 42.984-34.846 77.83-77.83 77.83s-77.83-34.846-77.83-77.83c0-5.986 0.676-11.815 1.955-17.414l-0.1 0.523zM247.638 370.835l1.551 297.338c0.274 43.814 20.638 82.817 52.334 108.296l0.272 0.211c-3.295 0.36-211.534 0.581-211.534 0.581-48.887-0.108-88.517-39.583-88.877-88.4v-0.034l-1.384-275.907c0-0.058-0.001-0.126-0.001-0.194 0-20.677 16.715-37.45 37.37-37.544h0.203c0 0 0 0 0 0 20.677 0 37.45 16.715 37.544 37.369v0.009l1.384 275.88c0.243 3.809 3.392 6.806 7.24 6.806s6.997-2.997 7.239-6.785l0.001-0.021v-631.278c0.624-24.409 20.56-43.958 45.062-43.958s44.437 19.549 45.060 43.901l0.001 0.058v350.443c0.542 4.918 4.674 8.709 9.691 8.709s9.149-3.791 9.687-8.665l0.004-0.044v-350.47c-0.009-0.333-0.014-0.724-0.014-1.117 0-24.895 20.181-45.075 45.075-45.075s45.075 20.181 45.075 45.075c0 0.393-0.005 0.784-0.015 1.175l0.001-0.058v239.498c-25.909 14.851-43.083 42.345-43.083 73.849 0 0.124 0 0.249 0.001 0.373v-0.019zM420.852 841.192c1.052-2.52 2.243-4.956 3.544-7.337s2.769-4.679 4.209-6.922c0.748-1.108 1.523-2.215 2.326-3.295 2.525-3.37 5.121-6.352 7.916-9.134l0.003-0.003c0.941-0.941 1.91-1.883 2.907-2.769 1.634-1.467 3.323-2.769 5.067-4.209 14.025-10.956 31.907-17.567 51.333-17.567s37.308 6.611 51.518 17.707l-0.186-0.14 2.437 1.938c18.457 15.49 30.108 38.57 30.108 64.371 0 35.091-21.552 65.149-52.142 77.658l-0.56 0.203c-2.64 1.11-5.93 2.227-9.306 3.135l-0.578 0.132-3.406 0.803c-1.855 0.415-3.71 0.748-5.538 1.024s-4.098 0.443-6.147 0.692-4.098 0.249-6.174 0.249c-2.769 0-5.759-0.138-8.583-0.443-3.241-0.335-6.073-0.784-8.855-1.37l0.548 0.097c-1.357-0.277-2.769-0.581-4.042-0.941-2.769-0.692-5.316-1.523-7.863-2.464-1.301-0.471-2.575-0.969-3.821-1.495q-3.766-1.578-7.337-3.516c-2.381-1.301-4.679-2.769-6.922-4.209-22.474-15.29-37.042-40.747-37.042-69.607 0-11.767 2.422-22.969 6.794-33.134l-0.209 0.545zM702.242 667.951c-0.392 52.673-43.16 95.228-95.878 95.273h-40.207l-50.779-132.707 11.823 55.708c0.235 1.047 0.369 2.248 0.369 3.482 0 2.938-0.763 5.698-2.101 8.093l0.043-0.084-16.253 29.709 13.844 27.217c0.456 0.815 0.724 1.788 0.724 2.824 0 3.242-2.628 5.87-5.87 5.87-0.001 0-0.003 0-0.004 0h-39.593c-0.001 0-0.003 0-0.004 0-3.242 0-5.87-2.628-5.87-5.87 0-1.036 0.268-2.009 0.739-2.854l-0.015 0.030 14.979-27.217-16.308-29.653c-1.302-2.315-2.069-5.082-2.069-8.029 0-1.157 0.118-2.285 0.343-3.375l-0.019 0.107 10.355-55.957c-5.538 14.176-45.242 119.804-50.281 132.679h-41.005c-52.645-0.155-95.309-42.664-95.716-95.235v-0.039l-0.748-147.16-0.748-150.15c0-0.058 0-0.126 0-0.194 0-22.278 17.997-40.353 40.246-40.479h0.206c22.286 0.016 40.357 18.038 40.452 40.304v0.009l0.748 151.673c0.803 156.131 0.581 146.385 1.052 148.6 0.811 3.481 3.887 6.035 7.56 6.035 4.233 0 7.673-3.392 7.751-7.606v-681.732c0-26.821 21.743-48.564 48.564-48.564s48.564 21.743 48.564 48.564v0 377.687c0.295 5.559 4.874 9.955 10.48 9.955s10.185-4.396 10.479-9.929l0.001-0.026v-377.687c0-26.821 21.743-48.564 48.564-48.564s48.564 21.743 48.564 48.564v0c0 352.658-0.665 615.247-0.831 679.759-0.003 0.083-0.005 0.18-0.005 0.277 0 4.666 3.783 8.449 8.449 8.449 4.569 0 8.291-3.627 8.444-8.158v-0.014l0.748-150.15 0.748-147.16c0.126-22.251 18.185-40.242 40.45-40.258h0.223c22.261 0.125 40.258 18.2 40.258 40.479 0 0.068 0 0.137-0.001 0.205v-0.011l-0.692 146.357zM753.464 821.562c13.64-12.067 31.682-19.435 51.444-19.435 42.969 0 77.802 34.833 77.802 77.802s-34.833 77.802-77.802 77.802c-42.969 0-77.802-34.833-77.802-77.802 0-0.010 0-0.021 0-0.031v0.002c0-0.028 0-0.062 0-0.096 0-23.168 10.163-43.963 26.274-58.169l0.085-0.073z" />
<glyph unicode="&#xe92e;" glyph-name="comp-and-mouse" horiz-adv-x="1145" d="M1123.453 404.241c-1.794 6.087-5.347 11.19-10.065 14.869l-0.065 0.049c-41.439 31.972-83.946 49.542-126.158 53.521-4.817 0.585-10.395 0.918-16.051 0.918-1.091 0-2.179-0.012-3.264-0.037l0.161 0.003c-0.716 0.010-1.561 0.016-2.407 0.016-6.365 0-12.654-0.327-18.85-0.965l0.777 0.065c-40.702-4.788-81.441-22.727-121.554-53.557-4.784-3.726-8.338-8.83-10.077-14.713l-0.052-0.205c-12.982-42.673-20.456-91.718-20.456-142.508 0-22.166 1.423-43.999 4.184-65.413l-0.267 2.532c7.367-63.724 24.974-127.705 45.454-198.906 1.827-6.016 5.374-11.052 10.063-14.684l0.067-0.050c31.699-23.456 71.565-37.544 114.721-37.544s83.022 14.089 115.249 37.917l-0.528-0.373c4.758 3.68 8.305 8.717 10.076 14.528l0.054 0.205c20.48 71.017 38.050 134.999 45.454 198.906 2.512 18.947 3.946 40.855 3.946 63.098 0 50.725-7.458 99.708-21.336 145.913l0.925-3.585zM995.122 285.928c0-13.996-11.346-25.342-25.342-25.342s-25.342 11.346-25.342 25.342v0 105.715c0 13.996 11.346 25.342 25.342 25.342s25.342-11.346 25.342-25.342v0zM776.877 15.563h-45.675l-37.719 128.258h76.984c-2.394 13.739-4.457 27.479-6.078 41.292-2.623 20.511-4.12 44.24-4.12 68.32 0 18.471 0.881 36.737 2.603 54.757l-0.177-2.296h-674.293v565.705h913.496v-363.152c32.786-3.542 62.711-12.679 89.878-26.463l-1.475 0.679v433.137c0 24.412-19.79 44.201-44.201 44.201v0h-1001.899c-24.412 0-44.201-19.79-44.201-44.201v0-727.777c0-24.412 19.79-44.201 44.201-44.201v0h352.617l-37.719-128.258h-45.675c-11.616 0-21.033-9.417-21.033-21.033v0-34.551c0.021-11.6 9.429-20.996 21.032-20.996h463.452c11.596 0 20.996 9.4 20.996 20.996v0 34.551c0 0.011 0 0.024 0 0.037 0 11.596-9.4 20.996-20.996 20.996 0 0 0 0 0 0v0z" />
<glyph unicode="&#xe92f;" glyph-name="creditcard" d="M934 840.28h-730.58c-49.683-0.057-89.943-40.317-90-89.995v-50.005h707.16c82.801-0.102 149.898-67.198 150-149.99v-286.75c31.71 14.393 53.375 45.761 53.42 82.194v404.546c-0.057 49.683-40.317 89.943-89.995 90h-0.005zM0 145.72c0.057-49.683 40.317-89.943 89.995-90h730.585c49.683 0.057 89.943 40.317 90 89.995v28.285h-910.58zM910.58 312.66v237.6c-0.057 49.683-40.317 89.943-89.995 90h-730.585c-49.683-0.057-89.943-40.317-90-89.995v-237.605z" />
<glyph unicode="&#xe930;" glyph-name="feather" horiz-adv-x="1501" d="M639.128 219.193c76.724 46.725 314.785 206.924 449.536 378.652-106.686 18.735-280.841-41.719-464.327-135.813-255.962-148.745-627.56-404.67-624.337-445.478 0.834-10.24 20.025-22.111 52.11-33.451 11.416-4.156 24.593-6.559 38.332-6.559 17.754 0 34.571 4.013 49.593 11.181l-0.696-0.299 103.386 48.28-65.346-65.839c-1.859-1.882-3.007-4.47-3.007-7.327 0-5.202 3.808-9.514 8.788-10.301l0.059-0.008c135.358-20.783 323.167-23.817 483.404 24.424 33.71 10.442 60.305 34.963 73.333 66.513l0.281 0.768 51.693 128.152-4.096-130.389c-0.004-0.103-0.006-0.224-0.006-0.346 0-5.76 4.67-10.43 10.43-10.43 1.733 0 3.367 0.422 4.804 1.17l-0.058-0.027c33.161 16.885 60.335 32.746 86.579 49.91l-3.522-2.161c26.774 17.541 45.615 45.296 51.031 77.603l0.094 0.676 26.548 163.081 27.269-140.971c0.967-4.841 5.182-8.438 10.238-8.438 2.725 0 5.206 1.045 7.064 2.756l-0.007-0.007c111.275 102.855 179.541 219.97 179.39 305.873 133.677 127.397 239.489 282.75 308.205 456.801l3.015 8.664c0.423 1.090 0.668 2.352 0.668 3.671 0 5.76-4.67 10.43-10.43 10.43-3.414 0-6.445-1.64-8.347-4.175l-0.019-0.027c-111.199-151.249-240.299-403.608-841.652-736.559z" />
<glyph unicode="&#xe931;" glyph-name="file" horiz-adv-x="791" d="M745.606 831.069h-28.962v-711.473c-0.029-47.337-38.366-85.71-85.687-85.799h-526.852v-26.376c0.007-30.216 24.5-54.709 54.716-54.717h586.68c30.216 0.007 54.709 24.5 54.717 54.716v768.984c0 0.019 0 0.042 0 0.065 0 30.17-24.447 54.63-54.611 54.652h-0.002zM337.455 64.827h293.34c30.222 0.015 54.717 24.518 54.717 54.743 0 0.009 0 0.018 0 0.027v-0.001 768.879c-0.015 30.213-24.504 54.702-54.715 54.717h-390.88v-18.101c0.198-1.717 0.31-3.707 0.31-5.724 0-0.024 0-0.048 0-0.073v0.004-149.876c-0.037-42.543-34.515-77.022-77.055-77.059h-149.88c-1.552 0-3.206 0.103-4.758 0.207h-19.032v-572.975c0-0.008 0-0.017 0-0.026 0-30.224 24.494-54.728 54.715-54.743h0.001zM348.522 250.802h-191.25c-14.281 0-25.859 11.577-25.859 25.859s11.577 25.859 25.859 25.859v0h191.354c14.259-0.029 25.807-11.595 25.807-25.859 0-14.281-11.577-25.859-25.859-25.859-0.018 0-0.036 0-0.055 0h0.003zM539.876 382.785h-382.604c-14.281 0-25.859 11.577-25.859 25.859s11.577 25.859 25.859 25.859v0h382.604c14.281 0 25.859-11.577 25.859-25.859s-11.577-25.859-25.859-25.859v0zM157.272 574.707h382.604c14.281 0 25.859-11.577 25.859-25.859s-11.577-25.859-25.859-25.859v0h-382.604c-14.281 0-25.859 11.577-25.859 25.859s11.577 25.859 25.859 25.859v0zM13.291 723.394h150.29c25.044 0.225 45.286 20.467 45.511 45.49v150.415c0 0.012 0 0.025 0 0.039 0 12.717-10.31 23.027-23.027 23.027-0.050 0-0.1 0-0.15 0h0.008c-0.011 0-0.025 0-0.038 0-6.316 0-12.021-2.615-16.092-6.821l-172.845-172.845c-14.481-14.481-4.241-39.305 16.343-39.305z" />
</font>
</defs>
</svg>
